<?xml version="1.0" standalone="no"?>
<!DOCTYPE svg PUBLIC "-//W3C//DTD SVG 1.1//EN" "http://www.w3.org/Graphics/SVG/1.1/DTD/svg11.dtd" >
<svg xmlns="http://www.w3.org/2000/svg">
<metadata>Generated by IcoMoon</metadata>
<defs>
<font id="Affinicia" horiz-adv-x="1024">
<font-face units-per-em="1024" ascent="960" descent="-64" />
<missing-glyph horiz-adv-x="1024" />
<glyph unicode="&#x20;" horiz-adv-x="512" d="" />
<glyph unicode="&#xe900;" glyph-name="long-arrow-right" d="M714.020 768.638l301.827-300.992c5.030-4.871 8.153-11.686 8.153-19.23s-3.123-14.36-8.146-19.223l-301.834-301.834c-4.871-5.030-11.686-8.153-19.23-8.153s-14.36 3.123-19.223 8.146l-45.156 45.156c-5.076 5.006-8.22 11.96-8.22 19.649s3.145 14.642 8.217 19.645l0.003 0.003 185.611 177.251h-788.431c-15.238 0-27.591 12.353-27.591 27.591v0 63.543c0 15.238 12.353 27.591 27.591 27.591h788.431l-184.776 177.251c-5.076 5.006-8.22 11.96-8.22 19.649s3.145 14.642 8.217 19.645l44.316 44.316c4.871 5.030 11.686 8.153 19.23 8.153s14.36-3.123 19.223-8.146l0.007-0.007z" />
<glyph unicode="&#xe901;" glyph-name="long-arrow-right-bold" d="M582.622 681.046c-10.674 9.347-17.439 22.93-17.655 38.097l-0.001 0.038c0.665 15.555 7.294 29.443 17.642 39.536l0.012 0.012 38.841 36.723c8.872 11.235 22.492 18.38 37.782 18.38s28.91-7.146 37.704-18.279l0.077-0.101 310.729-308.611c10.022-9.651 16.248-23.184 16.248-38.172 0-0.235-0.001-0.47-0.004-0.705l0.001 0.036c0.001-0.111 0.001-0.242 0.001-0.373 0-15.080-6.219-28.707-16.233-38.457l-0.012-0.011-310.729-308.611c-8.872-11.235-22.492-18.38-37.782-18.38s-28.91 7.146-37.704 18.279l-0.077 0.101-38.841 36.723c-10.675 10.432-17.379 24.887-17.654 40.908l-0.001 0.051c-0.002 0.161-0.003 0.351-0.003 0.541 0 14.453 5.948 27.517 15.529 36.878l0.010 0.010 149.009 151.127h-674.423c-0.487-0.016-1.060-0.026-1.635-0.026-14.558 0-27.725 5.952-37.201 15.557l-0.006 0.006c-9.947 9.685-16.147 23.177-16.243 38.117v55.102c-0.003 0.199-0.004 0.434-0.004 0.67 0 14.988 6.225 28.521 16.23 38.156l0.016 0.016c9.702 10.439 23.508 16.949 38.835 16.949 0.002 0 0.004 0 0.006 0h676.542z" />
<glyph unicode="&#xe902;" glyph-name="arrow-left" d="M486.431-49.441l-478.211 477.374c-5.076 5.006-8.22 11.959-8.22 19.647s3.144 14.641 8.217 19.644l478.214 478.214c5.006 5.076 11.959 8.22 19.647 8.22s14.641-3.144 19.644-8.217l45.148-45.148c5.031-4.87 8.153-11.685 8.153-19.228s-3.122-14.358-8.145-19.221l-354.485-354.485h780.018c15.237 0 27.589-12.352 27.589-27.589v0-64.375c0-0.004 0-0.009 0-0.013 0-14.775-11.978-26.753-26.753-26.753-0.294 0-0.587 0.005-0.879 0.014l0.043-0.001h-780.018l354.478-354.478c5.031-4.87 8.153-11.685 8.153-19.228s-3.122-14.358-8.145-19.221l-45.152-45.152c-5.006-5.076-11.959-8.22-19.647-8.22s-14.641 3.144-19.644 8.217l-0.003 0.003z" />
<glyph unicode="&#xe903;" glyph-name="chevron-right-light" d="M259.605 953.075c4.46 4.285 10.529 6.925 17.215 6.925 0.942 0 1.872-0.052 2.787-0.154l-0.112 0.010c0.376 0.020 0.815 0.031 1.257 0.031 6.685 0 12.765-2.592 17.29-6.825l-0.014 0.013 485.016-486.825c4.213-4.38 6.808-10.343 6.808-16.912 0-0.411-0.010-0.82-0.030-1.226l0.002 0.057c0.020-0.376 0.031-0.815 0.031-1.257 0-6.685-2.592-12.765-6.825-17.29l0.013 0.014-486.825-486.825c-4.51-4.22-10.59-6.812-17.276-6.812-0.442 0-0.882 0.011-1.319 0.034l0.061-0.003c-0.297-0.013-0.646-0.020-0.996-0.020-6.623 0-12.64 2.59-17.096 6.811l-18.522 18.522c-4.22 4.51-6.812 10.59-6.812 17.276 0 0.442 0.011 0.882 0.034 1.319l-0.003-0.061c-0.002 0.135-0.003 0.294-0.003 0.453 0 7.523 2.553 14.45 6.838 19.962l-0.055-0.073 452.019 447.951-452.019 447.499c-3.975 5.24-6.476 11.793-6.778 18.916l-0.002 0.069c-0.092 0.802-0.144 1.732-0.144 2.674 0 6.686 2.64 12.755 6.933 17.223l-0.008-0.008z" />
<glyph unicode="&#xe904;" glyph-name="chevron-right" d="M326.375-48.621c-7.568-9.409-19.082-15.379-31.989-15.379-0.453 0-0.905 0.007-1.355 0.022l0.066-0.002c-14.027 0.351-26.634 6.154-35.837 15.359l-28.158 28.158c-9.397 7.568-15.359 19.075-15.359 31.972 0 0.009 0 0.018 0 0.027v-0.001c0.141 14.469 5.976 27.547 15.368 37.126l-0.009-0.009 408.29 399.331-408.29 399.331c-8.651 9.989-14.281 22.808-15.346 36.902l-0.013 0.215c0.832 12.724 6.571 23.965 15.323 31.965l0.036 0.033 28.158 31.998c9.972 7.131 22.394 11.433 35.816 11.519h0.021c0.674 0.034 1.464 0.054 2.259 0.054 11.892 0 22.759-4.383 31.077-11.622l-0.057 0.049 471.006-464.606c8.012-9.657 12.874-22.179 12.874-35.837s-4.862-26.18-12.949-35.93l0.075 0.093z" />
<glyph unicode="&#xe905;" glyph-name="chevron-left-light" d="M764.482-57.188c-4.511-4.221-10.591-6.813-17.278-6.813-0.442 0-0.882 0.011-1.319 0.034l0.061-0.003c-0.349-0.018-0.758-0.028-1.169-0.028-6.57 0-12.533 2.595-16.922 6.817l-486.871 486.871c-4.221 4.511-6.813 10.591-6.813 17.278 0 0.442 0.011 0.882 0.034 1.319l-0.003-0.061c-0.013 0.297-0.020 0.646-0.020 0.996 0 6.624 2.59 12.641 6.812 17.098l486.868 486.868c4.381 4.214 10.344 6.809 16.914 6.809 0.411 0 0.82-0.010 1.226-0.030l-0.057 0.002c0.376 0.020 0.815 0.031 1.257 0.031 6.686 0 12.766-2.592 17.292-6.826l-0.014 0.013 18.535-18.535c4.212-4.445 6.801-10.463 6.801-17.086 0-0.35-0.007-0.699-0.022-1.046l0.002 0.050c0.002-0.133 0.003-0.291 0.003-0.448 0-7.673-2.549-14.75-6.846-20.433l0.062 0.085-452.069-447.548 452.069-448c4.232-5.439 6.785-12.366 6.785-19.89 0-0.159-0.001-0.318-0.003-0.477v0.024c0.020-0.376 0.031-0.815 0.031-1.257 0-6.686-2.592-12.766-6.826-17.292l0.013 0.014z" />
<glyph unicode="&#xe906;" glyph-name="chevron-bottom-light" d="M15.787 633.89c-9.586 6.616-15.788 17.541-15.788 29.914 0 0.56 0.013 1.117 0.038 1.671l-0.003-0.079c0.122 13.729 4.846 26.331 12.701 36.363l-0.099-0.131 31.507 28.356c6.616 9.586 17.541 15.788 29.914 15.788 0.56 0 1.117-0.013 1.671-0.038l-0.079 0.003c0.297 0.007 0.647 0.010 0.998 0.010 13.981 0 26.543-6.071 35.196-15.72l0.039-0.044 400.133-408.009 400.133 408.009c8.744 8.39 20.13 14.087 32.79 15.723l0.292 0.031c0.846 0.060 1.834 0.094 2.829 0.094 11.065 0 21.144-4.225 28.71-11.151l-0.032 0.029 31.507-28.356c9.768-10.618 15.755-24.847 15.755-40.473 0-0.17-0.001-0.341-0.002-0.512v0.026c0.003-0.188 0.005-0.41 0.005-0.632 0-12.025-4.811-22.925-12.614-30.881l0.007 0.007-463.146-472.598c-10.154-6.963-22.708-11.12-36.233-11.12s-26.078 4.157-36.453 11.263l0.221-0.143z" />
<glyph unicode="&#xe907;" glyph-name="chevron-bottom-bold" d="M22.938 576.817c-14.146 13.711-22.926 32.886-22.926 54.113 0 0.165 0.001 0.33 0.001 0.496v-0.026c-0.008 0.414-0.014 0.903-0.014 1.392 0 20.941 8.8 39.825 22.904 53.158l0.035 0.032 73.141 69.866c13.366 14.138 32.251 22.938 53.191 22.938 0.489 0 0.978-0.005 1.465-0.014l-0.073 0.001c0.14 0.001 0.305 0.001 0.47 0.001 21.226 0 40.403-8.78 54.094-22.907l0.019-0.019 306.756-304.573 306.756 304.573c13.366 14.138 32.251 22.938 53.191 22.938 0.489 0 0.978-0.005 1.465-0.014l-0.073 0.001c0.14 0.001 0.305 0.001 0.47 0.001 21.226 0 40.403-8.78 54.094-22.907l0.019-0.019 73.141-69.866c14.138-13.366 22.938-32.251 22.938-53.191 0-0.489-0.005-0.978-0.014-1.465l0.001 0.073c0.001-0.14 0.001-0.305 0.001-0.47 0-21.226-8.78-40.403-22.907-54.094l-436.682-436.682c-13.711-14.146-32.886-22.926-54.113-22.926-0.165 0-0.33 0.001-0.496 0.001h0.026c-0.414-0.008-0.903-0.014-1.392-0.014-20.941 0-39.825 8.8-53.158 22.904l-0.032 0.035z" />
<glyph unicode="&#xe908;" glyph-name="drag" d="M369.819 718.801l-32.538 32.538c-6.232 6.061-14.75 9.799-24.141 9.799s-17.91-3.738-24.149-9.807l-279.192-279.192c-6.061-6.232-9.799-14.75-9.799-24.141s3.738-17.91 9.807-24.149l279.192-279.192c6.232-6.061 14.75-9.799 24.141-9.799s17.91 3.738 24.149 9.807l32.531 32.531c6.216 6.259 10.056 14.883 10.056 24.403s-3.841 18.144-10.058 24.406l0.002-0.002-220.946 220.421 221.471 223.57c6.060 6.231 9.797 14.749 9.797 24.14 0 9.652-3.948 18.382-10.318 24.664l-0.004 0.004zM1013.763 472.139l-279.2 279.2c-6.314 6.093-14.921 9.847-24.403 9.847s-18.089-3.754-24.414-9.857l-32.528-32.528c-6.344-6.2-10.277-14.843-10.277-24.403s3.934-18.204 10.271-24.397l0.007-0.006 221.471-223.57-220.946-220.421c-6.344-6.2-10.277-14.843-10.277-24.403s3.934-18.204 10.271-24.397l0.007-0.006 32.538-32.538c6.314-6.093 14.921-9.847 24.403-9.847s18.089 3.754 24.414 9.857l-0.010-0.010 278.675 279.2c6.315 6.115 10.235 14.67 10.235 24.141s-3.92 18.026-10.226 24.132l-0.009 0.009z" />
<glyph unicode="&#xe909;" glyph-name="update" d="M1023.12 422.026c-15.008-270.929-238.362-484.941-511.702-484.941-141.201 0-269.064 57.11-361.75 149.491l0.014-0.014-107.419-108.299c-4.503-4.745-10.855-7.697-17.896-7.697-12.292 0-22.484 8.997-24.348 20.764l-0.018 0.14v300.244c0.47 13.423 11.231 24.184 24.61 24.652l0.044 0.001h294.961c0.107 0.002 0.232 0.003 0.358 0.003 13.616 0 24.653-11.038 24.653-24.653 0-6.898-2.833-13.134-7.398-17.608l-111.825-111.825c73.226-73.684 174.631-119.29 286.687-119.29 215.917 0 392.287 169.324 403.568 382.43l0.042 1.004c0.488 13.232 11.332 23.773 24.638 23.773 0.006 0 0.011 0 0.017 0h58.111c0.075 0.001 0.164 0.001 0.253 0.001 13.616 0 24.653-11.038 24.653-24.653 0-1.243-0.092-2.465-0.27-3.658l0.016 0.135zM1023.12 900.127v-292.32c0.011-0.268 0.017-0.582 0.017-0.897 0-13.129-10.644-23.773-23.773-23.773-0.316 0-0.63 0.006-0.942 0.018l0.045-0.001h-294.081c-0.107-0.002-0.232-0.003-0.358-0.003-13.616 0-24.653 11.038-24.653 24.653 0 6.898 2.833 13.134 7.398 17.608l0.004 0.004 110.941 109.18c-73.143 73.183-174.211 118.45-285.851 118.45-215.622 0-391.804-168.86-403.521-381.555l-0.046-1.039c-1.056-11.124-9.365-20.033-20.1-21.989l-0.151-0.023h-62.514c-0.267-0.010-0.581-0.016-0.897-0.016-13.616 0-24.653 11.038-24.653 24.653 0 0.315 0.006 0.629 0.018 0.942l-0.001-0.045c13.507 271.723 237.105 486.922 510.966 486.922 141.633 0 269.823-57.559 362.454-150.561l0.017-0.017 108.299 107.419c4.369 4.841 10.666 7.87 17.671 7.87 13.129 0 23.773-10.644 23.773-23.773 0-0.601-0.022-1.196-0.066-1.786l0.005 0.079z" />
<glyph unicode="&#xe90a;" glyph-name="reset" horiz-adv-x="1178" d="M665.082 960c-258.072-0.462-471.359-191.611-506.503-440.041l-0.315-2.719-58.407 87.61c-9.904 14.991-26.681 24.745-45.736 24.745-11.010 0-21.259-3.256-29.837-8.859l0.21 0.128c-12.838-8.468-21.864-21.823-24.449-37.357l-0.045-0.324c-0.702-3.257-1.104-6.999-1.104-10.835 0-11.454 3.586-22.070 9.697-30.788l-0.114 0.172 141.306-208.191c8.747-12.957 22.438-22.005 38.308-24.453l0.316-0.040h6.594c14.145 0.076 27.026 5.424 36.792 14.177l-0.052-0.046 195.003 175.22c9.511 10.224 15.348 23.978 15.348 39.095s-5.837 28.871-15.381 39.13l0.032-0.035c-9.986 9.66-23.61 15.613-38.624 15.613s-28.638-5.953-38.639-15.628l0.015 0.015-86.668-78.19c26.131 199.18 194.803 351.36 399.020 351.36 222.158 0 402.252-180.094 402.252-402.252 0-220.69-177.723-399.871-397.854-402.229l-0.223-0.002c-10.889-1.43-23.482-2.246-36.266-2.246-78.794 0-150.347 31.006-203.122 81.482l0.11-0.104c-9.745 9.889-23.285 16.016-38.256 16.016-0.129 0-0.259 0-0.388-0.001h0.020c-15.085-0.007-28.74-6.126-38.623-16.014v0c-10.114-9.778-16.393-23.467-16.393-38.624s6.279-28.846 16.378-38.609l0.015-0.015c72.926-69.762 172.010-112.704 281.123-112.704 12.463 0 24.796 0.56 36.974 1.657l-1.571-0.114c6.413-0.287 13.933-0.451 21.491-0.451 283.030 0 512.471 229.441 512.471 512.471s-229.441 512.471-512.471 512.471c-7.89 0-15.738-0.178-23.541-0.531l1.108 0.040z" />
<glyph unicode="&#xe90b;" glyph-name="home" d="M1018.695 507.017v0c2.432-1.024 4.108-3.386 4.108-6.141 0-0.177-0.007-0.353-0.021-0.526l0.002 0.023c0.77-1.893 1.217-4.089 1.217-6.388s-0.447-4.496-1.259-6.505l0.042 0.117-26.065-31.687c-0.851-2.433-3.127-4.147-5.802-4.147-0.297 0-0.589 0.021-0.874 0.062l0.032-0.003c-0.154-0.008-0.335-0.012-0.516-0.012-3.488 0-6.606 1.589-8.668 4.082l-0.015 0.019-85.862 67.463v-459.974c-0.286-35.167-28.718-63.598-63.857-63.885h-231.547c-13.152 0.279-23.741 10.869-24.020 23.995l-0.001 0.026v265.762h-127.771v-261.674c-0.279-13.152-10.869-23.741-23.995-24.020l-0.026-0.001h-231.52c-0.266-0.004-0.58-0.007-0.894-0.007-17.337 0-32.978 7.254-44.058 18.891l-0.024 0.025c-11.663 11.102-18.917 26.744-18.917 44.081 0 0.314 0.003 0.628 0.007 0.942l-0.001-0.047v455.884l-83.817-65.929c-1.5-2.107-3.932-3.464-6.682-3.464-0.9 0-1.765 0.145-2.575 0.414l0.058-0.017c-3.082 0.245-5.633 2.281-6.628 5.057l-0.017 0.053-28.11 28.11c-0.394 1.379-0.62 2.963-0.62 4.599s0.226 3.22 0.649 4.722l-0.030-0.122c0.194 3.447 1.726 6.501 4.081 8.681l0.009 0.008 467.129 377.178c10.853 8.616 24.75 13.822 39.864 13.822s29.012-5.207 39.997-13.924l-0.133 0.102 279.561-225.898v102.217c-0.002 0.077-0.003 0.167-0.003 0.257 0 3.41 1.591 6.449 4.069 8.415l0.022 0.017c2.041 1.811 4.71 2.953 7.643 3.066l0.023 0.001h40.375c2.957-0.114 5.625-1.256 7.679-3.078l-0.013 0.011c2.502-1.983 4.092-5.021 4.092-8.431 0-0.090-0.001-0.181-0.003-0.27v0.013-153.325zM831.128 65.954v511.082l-311.249 249.408c-2.16 1.938-5.030 3.123-8.177 3.123s-6.017-1.185-8.188-3.134l0.011 0.010-311.249-251.452v-511.082h191.656v265.762c0.274 13.336 11.15 24.042 24.527 24.042 0.362 0 0.721-0.008 1.078-0.024l-0.051 0.002h204.432c13.152-0.279 23.741-10.869 24.020-23.995l0.001-0.026v-263.718z" />
<glyph unicode="&#xe90c;" glyph-name="phone" d="M367.775 696.957c14.156 12.728 23.359 30.723 24.505 50.874l0.009 0.195c-1.034 20.374-10.267 38.406-24.439 51.005l-0.074 0.065-98.564 98.564c-11.236 11.746-27.066 27.577-40.345 39.323-12.064 14.121-29.89 23.016-49.793 23.016s-37.728-8.894-49.717-22.925l-0.075-0.090-85.797-85.286c-22.995-21.696-38.133-51.501-40.825-84.822l-0.030-0.465c-0.188-4.494-0.296-9.767-0.296-15.065 0-54.534 11.382-106.409 31.899-153.38l-0.961 2.47c46.363-117.861 108.79-219.337 185.92-307.642l-1.047 1.224c103.123-123.209 229.458-223.258 372.756-294.228l6.692-2.998c59.265-31.277 128.467-52.854 201.8-60.561l2.478-0.211h9.703c0.713-0.013 1.556-0.020 2.4-0.020 32.088 0 61.76 10.347 85.86 27.888l-0.419-0.291c13.086 11.322 24.937 23.173 35.89 35.822l0.37 0.437c20.428 21.45 41.366 41.877 62.305 62.305 14.528 12.35 23.685 30.64 23.685 51.070s-9.157 38.719-23.59 50.991l-0.095 0.079-136.866 137.377c-11.793 13.984-29.008 23.072-48.363 23.997l-0.153 0.006c-20.25-0.691-38.296-9.584-51.022-23.439l-0.048-0.053-86.818-86.818c-6.906-7.308-16.666-11.858-27.489-11.858-7.412 0-14.327 2.134-20.161 5.821l0.155-0.092c-82.068 43.269-152.31 96.405-212.718 159.084l-0.242 0.253c-21.469 22.021-42.018 45.322-61.371 69.619l-1.445 1.879c-31.283 37.812-58.001 81.072-78.317 127.761l-1.352 3.488c-2.003 4.218-3.171 9.167-3.171 14.387 0 10.089 4.366 19.158 11.312 25.42l0.030 0.027c21.96 19.407 87.839 85.797 87.839 85.797z" />
<glyph unicode="&#xe90d;" glyph-name="phone-outline" d="M984.994 237.682l-122.912 122.812c-21.102 23.002-51.205 37.604-84.608 38.104h-0.1c-33.803-0.5-64.206-14.801-85.808-37.504v0l-65.506-63.706-8.501 4.5c-8.301 3.8-15.201 7.601-21.802 11.801l0.7-0.4c-69.807 45.904-129.313 100.31-179.117 162.816l-1.2 1.5c-19.702 24.602-37.804 52.105-53.205 81.308l-1.4 2.8c15.902 14.801 31.303 30.103 45.504 44.904l18.802 18.802c23.602 21.802 38.704 52.505 39.804 86.808v0.2c-1.1 34.503-16.202 65.206-39.704 86.908l-0.1 0.1-60.806 61.606c-7.401 6.801-14.201 13.601-21.002 21.002s-27.903 28.403-42.104 41.504c-21.602 22.502-51.905 36.404-85.408 36.404s-63.706-13.901-85.208-36.304v0l-77.308-77.308c-30.703-28.903-50.705-68.807-53.505-113.311v-0.5c-0.3-5.501-0.5-11.901-0.5-18.402 0-55.005 11.501-107.41 32.103-154.815l-1 2.5c43.104-111.611 101.71-207.72 174.417-291.228l-1 1.2c96.409-115.811 214.921-209.62 349.334-275.927l6.201-2.8c58.906-30.203 127.612-50.605 200.42-56.706l2-0.1h14.801c2.5-0.1 5.401-0.2 8.401-0.2 51.505 0 97.81 21.902 130.313 57.006l0.1 0.1c10.201 12.501 22.202 23.902 34.703 36.404l3.4 2.8 29.003 29.003c25.102 21.602 40.804 53.405 40.804 88.909 0 34.703-15.101 65.906-39.004 87.309v0.1zM921.788 123.971c-8.501-9.101-17.102-17.602-26.703-26.703l-2.8-2.8c-13.201-13.601-25.803-28.103-37.804-43.204l-0.9-1.2c-17.502-19.002-42.504-30.803-70.307-30.803-1.5 0-3 0-4.4 0.1h-10.601c-63.406 6.601-121.212 24.802-173.217 52.405l2.6-1.2c-128.813 63.506-237.323 149.415-324.632 253.725l-1.3 1.5c-64.906 75.507-118.212 163.516-155.415 259.425l-2.1 6.101c-15.602 35.703-24.802 77.408-24.802 121.112 0 4.8 0.1 9.601 0.3 14.301v-0.7c1.8 22.402 11.701 42.304 26.703 56.906v0l75.607 77.308c5.901 6.801 14.301 11.301 23.802 11.901h0.1c10.001-0.8 18.802-5.501 25.002-12.501v0l35.303-34.703 87.008-88.109c7.401-6.101 12.401-14.901 13.601-24.802v-0.2c-1.2-10.101-6.201-18.902-13.601-25.002l-0.1-0.1-22.702-25.002c-17.102-17.102-32.403-33.003-51.805-50.005-11.601-11.001-18.802-26.503-18.802-43.704 0-7.801 1.5-15.201 4.2-22.102l-0.1 0.4c19.802-47.405 44.404-88.309 74.107-124.912l-0.7 0.9c57.306-71.607 124.112-132.513 199.219-181.718l3.2-2 23.902-13.601h4.5l21.602-11.401h3.4c9.001-5.601 19.902-8.901 31.603-8.901 15.702 0 30.003 6.001 40.704 15.802v0l76.807 76.807c5.901 6.901 14.301 11.501 23.702 12.501h0.2c9.401-1.3 17.502-5.801 23.302-12.501v0l123.512-123.312c7.301-5.801 12.001-14.601 12.001-24.602-0.1-10.401-5.201-19.702-13.201-25.402v0 0 0z" />
<glyph unicode="&#xe90e;" glyph-name="incoming-call" d="M366.6 697c14.2 12.7 23.4 30.7 24.5 50.9v0.2c-1 20.4-10.3 38.4-24.4 51l-98.7 98.7c-11.2 11.6-27.1 27.4-40.3 39.2-12.1 14.1-29.9 23-49.8 23s-37.7-8.9-49.7-22.9l-0.1-0.1-85.8-85.3c-23-21.7-38.1-51.5-40.8-84.8v-0.5c-0.2-4.5-0.3-9.8-0.3-15.1 0-54.5 11.4-106.4 31.9-153.4l-1 2.5c46.4-117.9 108.8-219.3 185.9-307.6l-1 1.2c103.1-123.2 229.5-223.3 372.8-294.2l6.7-3c59.3-31.3 128.5-52.9 201.8-60.6l2.5-0.2h9.7c0.7 0 1.6 0 2.4 0 32.1 0 61.8 10.3 85.9 27.9l-0.4-0.3c13.1 11.3 24.9 23.2 35.9 35.8l0.4 0.4c20.4 21.5 41.4 41.9 62.3 62.3 14.5 12.3 23.7 30.6 23.7 51.1s-9.2 38.7-23.6 51l-0.1 0.1-137.1 137.4c-11.8 14-29 23.1-48.4 24h-0.2c-20.2-0.7-38.3-9.6-51-23.4v-0.1l-86.8-86.8c-6.9-7.3-16.7-11.9-27.5-11.9-7.4 0-14.3 2.1-20.2 5.8l0.2-0.1c-82.1 43.3-152.3 96.4-212.7 159.1l-0.2 0.3c-21.5 22-42 45.3-61.4 69.6l-1.4 1.9c-31.3 37.8-58 81.1-78.3 127.8l-1.4 3.5c-2 4.2-3.2 9.2-3.2 14.4 0 10.1 4.4 19.2 11.3 25.4v0c22 19.4 87.9 85.8 87.9 85.8v0zM660 560.8h261c1.4-0.2 3-0.3 4.6-0.3 20.7 0 37.5 16.8 37.5 37.5s-16.8 37.5-37.5 37.5c-1.6 0-3.2-0.1-4.8-0.3h-170.4l262.2 262.2c6.3 6.8 10.2 15.9 10.2 26 0 0.1 0 0.1 0 0.2v0c0 0.2 0 0.3 0 0.5 0 9.8-3.9 18.6-10.2 25.1v0c-6.4 6.7-15.4 10.8-25.4 10.8-0.3 0-0.5 0-0.8 0v0c-0.2 0-0.5 0-0.8 0-10.1 0-19.3-4.1-25.9-10.8v0l-262.2-261v170.6c0.2 1.4 0.3 3 0.3 4.6 0 20.7-16.8 37.5-37.5 37.5s-37.5-16.8-37.5-37.5c0-1.6 0.1-3.2 0.3-4.8v0.2-260.5c0-0.2 0-0.4 0-0.6-0.1-20.4 16.5-36.9 36.9-36.9v0 0 0 0z" />
<glyph unicode="&#xe90f;" glyph-name="incoming-call-outline" d="M984.9 237.7l-122.9 122.8c-21.1 23-51.2 37.6-84.6 38.1h-0.1c-33.8-0.5-64.2-14.8-85.8-37.5v0l-65.5-63.7-8.5 4.5c-8.3 3.8-15.2 7.6-21.8 11.8l0.7-0.4c-69.8 45.9-129.3 100.3-179.1 162.8l-1.2 1.5c-19.7 24.6-37.8 52.1-53.2 81.3l-1.4 2.8c15.9 14.8 31.3 30.1 45.5 44.9l18.8 18.8c23.6 21.8 38.7 52.5 39.8 86.8v0.2c-1.1 34.5-16.2 65.2-39.7 86.9l-0.1 0.1-60.8 61.6c-7.4 6.8-14.2 13.6-21 21s-27.9 28.4-42.1 41.5c-21.6 22.5-51.9 36.4-85.4 36.4s-63.7-13.9-85.2-36.3v0l-77.3-77.3c-30.7-28.9-50.7-68.8-53.5-113.3v-0.5c-0.3-5.5-0.5-11.9-0.5-18.4 0-55 11.5-107.4 32.1-154.8l-1 2.5c43.1-111.6 101.7-207.7 174.4-291.2l-1 1.2c96.4-115.8 214.9-209.6 349.3-275.9l6.2-2.8c58.9-30.2 127.6-50.6 200.4-56.7l2-0.1h14.8c2.5-0.1 5.4-0.2 8.4-0.2 51.5 0 97.8 21.9 130.3 57l0.1 0.1c10.2 12.5 22.2 23.9 34.7 36.4l3.4 2.8 29 29c25.1 21.6 40.8 53.4 40.8 88.9 0 34.7-15.1 65.9-39 87.3v0.1zM921.7 124c-8.5-9.1-17.1-17.6-26.7-26.7l-2.8-2.8c-13.2-13.6-25.8-28.1-37.8-43.2l-0.9-1.2c-17.5-19-42.5-30.8-70.3-30.8-1.5 0-3 0-4.4 0.1h-10.6c-63.4 6.6-121.2 24.8-173.2 52.4l2.6-1.2c-128.8 63.5-237.3 149.4-324.6 253.7l-1.3 1.5c-64.9 75.5-118.2 163.5-155.4 259.4l-2.1 6.1c-15.6 35.7-24.8 77.4-24.8 121.1 0 4.8 0.1 9.6 0.3 14.3v-0.7c1.8 22.4 11.7 42.3 26.7 56.9v0l75.6 77.3c5.9 6.8 14.3 11.3 23.8 11.9h0.1c10-0.8 18.8-5.5 25-12.5v0l35.3-34.7 87-88.1c7.4-6.1 12.4-14.9 13.6-24.8v-0.2c-1.2-10.1-6.2-18.9-13.6-25l-0.1-0.1-22.7-25c-17.1-17.1-32.4-33-51.8-50-11.6-11-18.8-26.5-18.8-43.7 0-7.8 1.5-15.2 4.2-22.1l-0.1 0.4c19.8-47.4 44.4-88.3 74.1-124.9l-0.7 0.9c57.3-71.6 124.1-132.5 199.2-181.7l3.2-2 23.9-13.6h4.5l21.6-11.4h3.4c9-5.6 19.9-8.9 31.6-8.9 15.7 0 30 6 40.7 15.8v0l76.8 76.8c5.9 6.9 14.3 11.5 23.7 12.5h0.2c9.4-1.3 17.5-5.8 23.3-12.5v0l123.5-123.3c7.3-5.8 12-14.6 12-24.6-0.1-10.4-5.2-19.7-13.2-25.4v0 0zM655.6 554.5h261c1.4-0.2 3-0.3 4.6-0.3 20.7 0 37.5 16.8 37.5 37.5s-16.8 37.5-37.5 37.5c-1.6 0-3.2-0.1-4.8-0.3h-170.4l262.2 262.2c6.3 6.8 10.2 15.9 10.2 26 0 0.1 0 0.1 0 0.2v0c0 0.2 0 0.3 0 0.5 0 9.8-3.9 18.6-10.2 25.1v0c-6.4 6.7-15.4 10.8-25.4 10.8-0.3 0-0.5 0-0.8 0v0c-0.2 0-0.5 0-0.8 0-10.1 0-19.3-4.1-25.9-10.8v0l-262.2-261v170.6c0.2 1.4 0.3 3 0.3 4.6 0 20.7-16.8 37.5-37.5 37.5s-37.5-16.8-37.5-37.5c0-1.6 0.1-3.2 0.3-4.8v0.2-260.5c0-0.2 0-0.4 0-0.6-0.1-20.4 16.5-36.9 36.9-36.9 0 0 0 0 0 0v0 0z" />
<glyph unicode="&#xe910;" glyph-name="phone-confirm" d="M887.641 198.769l-0.099 0.090-113.68 111.644c-17.951 19.82-43.782 32.217-72.51 32.217-28.68 0-54.474-12.358-72.349-32.039l-0.144-0.162-62.285-61.271-12.934 6.808c-8.041 3.657-14.758 7.318-21.188 11.39l1.455-0.86c-64.689 42.462-119.852 92.862-166.054 150.752l-1.085 1.408c-19.663 23.642-37.102 50.332-51.295 78.919l-1.070 2.381-1.076 2.431c16.002 14.979 31.321 30.29 45.611 44.928l17.041 17.364c20.3 18.166 33.245 44.187 34.028 73.243l0.003 0.137v0.135c-0.854 29.074-13.749 54.978-33.847 73.018l-0.095 0.084-0.099 0.081-55.835 55.818-18.719 19.732c-12.226 12.262-26.576 25.537-38.121 37.448-18.491 18.552-44.068 30.031-72.326 30.031s-53.836-11.478-72.323-30.028l-0.003-0.003-69.783-71.479c-25.398-24.658-42.352-57.892-46.183-95.017l-0.055-0.662-0.054-0.646c-0.26-5.077-0.404-11.024-0.404-17.041 0-0.152 0-0.331 0-0.511 0-49.813 10.225-97.237 28.69-140.29l-1.782 4.669c39.304-100.181 92.387-186.469 157.98-261.464 87.22-104.254 194.085-188.909 315.318-248.952l5.651-2.538c52.615-27.959 114.057-47.287 179.195-54.266l2.233-0.197h13.239c1.399 0 3.050-0.072 4.7-0.072 0.053 0 0.115 0 0.177 0 45.651 0 86.688 19.761 115.022 51.195l0.123 0.138 0.126 0.135c10.557 12.115 21.543 23.12 33.229 33.348l0.398 0.341 0.413 0.35 2.691 2.691q13.284 12.558 26.55 26.55c21.051 18.147 34.296 44.847 34.296 74.639 0 29.11-12.644 55.267-32.741 73.277l-0.093 0.082zM841.34 96.801l-0.090-0.063q-11.912-12.262-24.505-24.505l-2.045-2.018c-12.558-12.252-25.528-24.845-37.439-38.802-17.251-19.302-42.22-31.394-70.013-31.394-0.026 0-0.053 0-0.079 0h0.004c-1.328 0-2.691 0-3.965 0.081h-9.678c-58.643 6.279-112.12 23.043-160.349 48.436l2.413-1.157c-118.622 58.392-218.499 137.584-298.688 233.756l-1.166 1.444c-59.109 67.371-107.815 145.743-142.449 231.315l-1.961 5.482-1.973 5.596c-14.755 33.94-23.32 73.488-23.32 115.035q0 5.471 0.206 10.906c1.713 22.844 11.8 43.049 27.165 57.798l0.030 0.029 68.070 68.079c6.218 8.986 16.47 14.8 28.081 14.8 11.564 0 21.781-5.767 27.933-14.581l0.073-0.111 0.081-0.108c10.889-10.216 21.438-20.764 32.291-31.995l81.004-78.287c8.24-7 13.776-16.968 14.946-28.231l0.016-0.184v-0.179c-1.058-11.617-6.6-21.766-14.858-28.834l-0.058-0.049-0.063-0.054-22.029-21.786c-15.652-15.993-30.632-31.312-47.988-46.973-9.129-8.319-14.835-20.257-14.835-33.529 0-6.075 1.196-11.87 3.365-17.165l-0.11 0.302v-2.027c18.603-41.412 41.261-77.139 68.169-109.070 50.801-63.689 109.902-117.935 176.3-162.078l5.693-3.553c5.77-3.871 12.457-7.693 19.413-11.042l0.991-0.43 1.040-0.44 4.125-2.018c7.176-3.749 13.957-7.176 19.732-10.898h2.691c6.365-3.546 13.964-5.633 22.049-5.633 13.499 0 25.639 5.819 34.049 15.085l0.034 0.038 69.774 69.774c6.998 7.961 16.849 13.27 27.941 14.321l0.171 0.013h0.17c10.843-1.078 20.281-6.36 26.785-14.17l0.052-0.064 0.054-0.063 112.658-112.326c8.86-6.786 14.518-17.369 14.518-29.274 0-11.865-5.62-22.418-14.343-29.142l-0.086-0.064zM763.995 703.983l-49.978 49.978-34.928-34.928 84.906-84.906 137.001 137.010-34.928 34.928zM790.5 960.001c-127.556 0-231.325-103.779-231.325-231.325 0-0.165-0.001-0.361-0.001-0.556 0-34.432 7.602-67.088 21.22-96.382l-0.589 1.412-34.192-150.169 150.797 34.308c27.484-12.602 59.626-19.949 93.482-19.949 0.214 0 0.428 0 0.642 0.001h-0.033c127.556 0 231.335 103.779 231.335 231.335s-103.779 231.325-231.335 231.325zM790.5 546.736c-0.148 0-0.324-0.001-0.5-0.001-29.083 0-56.558 6.895-80.875 19.139l1.034-0.472-7.857 3.875-91.104-20.729 20.629 90.665-3.974 7.92c-12.141 23.579-19.259 51.457-19.259 80.997 0 0.189 0 0.377 0.001 0.566v-0.029c0 100.325 81.623 181.94 181.931 181.94s181.94-81.623 181.94-181.94-81.641-181.931-181.966-181.931z" />
<glyph unicode="&#xe911;" glyph-name="external-link" d="M895.998 352.183v-320.364c0-52.918-42.899-95.817-95.817-95.817v0h-704.361c-52.918 0-95.817 42.899-95.817 95.817v0 704.361c0 52.918 42.899 95.817 95.817 95.817v0h320.364c17.457-0.409 31.451-14.658 31.451-32.175 0-0.003 0-0.006 0-0.009v0-31.451c0.005-0.218 0.009-0.474 0.009-0.731 0-17.37-14.081-31.451-31.451-31.451-0.003 0-0.006 0-0.009 0h-307.929c-6.711-0.375-12.060-5.723-12.433-12.4l-0.002-0.034v-679.492c0.375-6.711 5.723-12.060 12.4-12.433l0.034-0.002h679.492c6.711 0.375 12.060 5.723 12.433 12.4l0.002 0.034v307.929c0 0.003 0 0.006 0 0.009 0 17.37 14.081 31.451 31.451 31.451 0.257 0 0.514-0.003 0.769-0.009l-0.038 0.001h31.451c0.002 0 0.005 0 0.008 0 17.517 0 31.765-13.995 32.174-31.413l0.001-0.038zM1023.996 931.471v-326.947c-0.409-15.841-13.347-28.526-29.248-28.526-0.003 0-0.006 0-0.010 0h-66.56c-15.754 0-28.526 12.771-28.526 28.526v0l5.12 146.286v3.657l-561.733-555.15c-4.319-4.34-10.23-7.094-16.782-7.313l-0.041-0.001c-6.82 0.252-12.955 2.989-17.568 7.327l0.014-0.013-45.349 45.349c-4.325 4.599-7.063 10.734-7.313 17.506l-0.001 0.049c0.22 6.593 2.974 12.503 7.313 16.822l557.346 557.346-3.657 4.389-146.286-5.12c-15.754 0-28.526 12.771-28.526 28.526v0 66.56c0 0.044 0 0.095 0 0.147 0 15.128 11.482 27.574 26.206 29.1l0.125 0.011h326.947c15.592-0.397 28.128-12.934 28.525-28.488l0.001-0.037z" />
<glyph unicode="&#xe912;" glyph-name="email-outline" d="M933.986 808.056h-843.972c-49.632-0.204-89.81-40.383-90.014-89.994v-540.104c0.204-49.632 40.383-89.81 89.994-90.014h843.992c49.713 0 90.014 40.301 90.014 90.014v0 540.084c0 49.713-40.301 90.014-90.014 90.014v0zM921.384 747.926l-345.294-343.853c-16.337-16.251-38.86-26.296-63.73-26.296s-47.393 10.046-63.734 26.3l-346.010 343.849zM60.13 190.199v515.601l259.241-257.8zM102.617 148.072l259.241 257.44 44.287-43.927c27.117-27.179 64.613-43.994 106.036-43.994s78.918 16.815 106.033 43.991l43.93 43.93 259.241-257.44zM964.231 190.199l-259.241 257.8 259.241 257.8z" />
<glyph unicode="&#xe913;" glyph-name="calendar" d="M606.814 481.414c0.336-0.006 0.731-0.010 1.128-0.010 35.399 0 64.095 28.696 64.095 64.095s-28.696 64.095-64.095 64.095c-35.399 0-64.095-28.696-64.095-64.095 0-0.397 0.004-0.792 0.011-1.187l-0.001 0.059c0.627-34.515 28.442-62.33 62.898-62.956l0.059-0.001zM606.814 289.509c0.335-0.006 0.731-0.010 1.128-0.010 35.399 0 64.095 28.696 64.095 64.095s-28.696 64.095-64.095 64.095c-34.995 0-63.44-28.046-64.084-62.887l-0.001-0.060c-0.007-0.341-0.010-0.744-0.010-1.148 0-35.002 28.057-63.451 62.908-64.084l0.059-0.001zM798.719 289.509c0.449-0.011 0.977-0.018 1.507-0.018 35.399 0 64.095 28.696 64.095 64.095s-28.696 64.095-64.095 64.095c-34.992 0-63.435-28.041-64.084-62.879l-0.001-0.061c-0.006-0.339-0.010-0.738-0.010-1.139 0-35.269 28.486-63.884 63.706-64.094h0.020zM798.719 481.414c0.449-0.011 0.977-0.018 1.507-0.018 35.399 0 64.095 28.696 64.095 64.095s-28.696 64.095-64.095 64.095c-35.399 0-64.095-28.696-64.095-64.095 0-0.394 0.004-0.787 0.011-1.179l-0.001 0.059c0.636-34.777 28.875-62.75 63.696-62.957h0.020zM606.814 97.603c35.399 0 64.095 28.696 64.095 64.095s-28.696 64.095-64.095 64.095c-35.399 0-64.095-28.696-64.095-64.095v0c0-35.399 28.696-64.095 64.095-64.095v0zM414.909 97.603c35.399 0 64.095 28.696 64.095 64.095s-28.696 64.095-64.095 64.095c-35.399 0-64.095-28.696-64.095-64.095v0c0-0.012 0-0.026 0-0.040 0-35.399 28.696-64.095 64.095-64.095 0.8 0 1.597 0.015 2.39 0.044l-0.115-0.003zM224.141 289.509c35.394 0.006 64.085 28.7 64.085 64.095 0 35.399-28.696 64.095-64.095 64.095-34.999 0-63.445-28.051-64.084-62.897l-0.001-0.060c-0.006-0.339-0.010-0.738-0.010-1.138 0-35.399 28.696-64.095 64.095-64.095 0.004 0 0.007 0 0.011 0h-0.001zM417.184 481.414c34.901 0.645 62.947 29.089 62.947 64.085 0 35.399-28.696 64.095-64.095 64.095s-64.095-28.696-64.095-64.095c0-0.396 0.004-0.792 0.011-1.187l-0.001 0.059c0.634-34.91 29.083-62.967 64.085-62.967 0.404 0 0.806 0.004 1.208 0.011l-0.060-0.001zM224.141 97.603c35.399 0 64.095 28.696 64.095 64.095s-28.696 64.095-64.095 64.095c-35.399 0-64.095-28.696-64.095-64.095v0c-0.001-0.113-0.001-0.247-0.001-0.38 0-35.189 28.526-63.716 63.716-63.716 0.134 0 0.267 0 0.401 0.001h-0.020zM417.184 289.509c34.901 0.645 62.947 29.090 62.947 64.085 0 35.399-28.696 64.095-64.095 64.095-34.995 0-63.439-28.045-64.084-62.886l-0.001-0.060c-0.007-0.342-0.010-0.744-0.010-1.148 0-35.399 28.696-64.095 64.095-64.095 0.404 0 0.807 0.004 1.208 0.011l-0.060-0.001zM897.326 896.323h-65.233v33.375c-1.821 16.238-15.473 28.746-32.047 28.746s-30.227-12.508-32.034-28.599l-0.013-0.147v-32.237h-512v32.237c-1.821 16.238-15.473 28.746-32.047 28.746s-30.227-12.508-32.034-28.599l-0.013-0.147v-32.237h-64.095c-70.588 0-127.81-57.223-127.81-127.81v0-704.285c0-70.588 57.223-127.81 127.81-127.81v0h768.38c70.588 0 127.81 57.223 127.81 127.81v0 704.285c0 70.588-57.223 127.81-127.81 127.81v0zM961.042 64.229c0-35.189-28.526-63.716-63.716-63.716v0h-769.518c-35.189 0-63.716 28.526-63.716 63.716v0 641.328h895.811z" />
<glyph unicode="&#xe914;" glyph-name="paper-plane" d="M951.010 952.238c7.216 4.863 16.105 7.762 25.672 7.762s18.456-2.899 25.838-7.867l-0.166 0.105c12.92-8.367 21.348-22.708 21.348-39.020 0-2.806-0.25-5.553-0.727-8.222l0.042 0.281-145.891-865.952c-2.622-14.726-11.714-26.907-24.169-33.687l-0.25-0.125c-5.955-3.366-13.078-5.35-20.662-5.35s-14.707 1.983-20.876 5.46l0.213-0.111-247.325 102.061-125.228-154.030c-7.957-10.686-20.555-17.533-34.751-17.533-0.11 0-0.221 0-0.331 0.001h0.017c-0.329-0.007-0.716-0.011-1.105-0.011-13.401 0-25.697 4.73-35.31 12.611l0.098-0.078c-9.293 8.605-15.092 20.871-15.092 34.491 0 0.862 0.023 1.718 0.069 2.569l-0.005-0.119v159.040l480.875 587.947c2.084 1.844 3.392 4.526 3.392 7.514s-1.307 5.669-3.381 7.505l-0.011 0.009c-2.175 1.868-5.025 3.007-8.14 3.007s-5.965-1.137-8.157-3.021l0.017 0.014-574.797-504.043-211.636 88.911c-17.009 6.303-29.097 21.975-30.051 40.589l-0.005 0.11c-0.145 1.318-0.228 2.847-0.228 4.394 0 17.728 10.835 32.925 26.243 39.332l0.282 0.104z" />
<glyph unicode="&#xe915;" glyph-name="invoice-upload" d="M744.586 516.676v193.803c-0.219 5.721-2.519 10.865-6.16 14.734l0.011-0.012-217.469 228.091c-3.856 4.133-9.333 6.708-15.412 6.708-0.019 0-0.039 0-0.058 0h-344.557c-63.238-0.21-114.421-51.523-114.421-114.791 0-0.262 0.001-0.524 0.003-0.786v0.040-652.223c-0.001-0.166-0.001-0.363-0.001-0.56 0-62.986 51.060-114.045 114.045-114.045 0.131 0 0.263 0 0.394 0.001h271.863c52.325-85.47 145.181-141.636 251.156-141.636 162.096 0 293.5 131.404 293.5 293.5 0 140.632-98.91 258.163-230.958 286.822l-1.935 0.352zM526.743 885.461l145.911-153.551h-94.665c-28.153 0.208-50.933 22.922-51.246 51.030v0.030zM412.884 340.763h-193.803c-0.598 0.059-1.293 0.093-1.996 0.093-11.836 0-21.43-9.595-21.43-21.43s9.595-21.43 21.43-21.43c0.703 0 1.398 0.034 2.083 0.1l-0.087-0.007h179.827c-5.092-20.493-8.013-44.018-8.013-68.225 0-0.189 0-0.378 0.001-0.567v0.029c-0.001-0.22-0.001-0.482-0.001-0.743 0-38.621 7.668-75.449 21.567-109.048l-0.694 1.894h-250.826c-0.056 0-0.121 0-0.187 0-39.521 0-71.558 32.037-71.558 71.558 0 0.131 0 0.262 0.001 0.393v-0.020 651.105c-0.002 0.222-0.004 0.484-0.004 0.746 0 39.7 32.077 71.906 71.728 72.116h323.149v-134.358c0-0.001 0-0.003 0-0.005 0-51.646 41.603-93.575 93.125-94.101h123.972v-166.596c-6.522 0-11.554 0-17.144 0-74.38-0.281-142.288-27.754-194.355-72.987l0.366 0.311h-270.951c-0.598 0.059-1.293 0.093-1.996 0.093-11.836 0-21.43-9.595-21.43-21.43s9.595-21.43 21.43-21.43c0.703 0 1.398 0.034 2.083 0.1l-0.087-0.007h231.259c-14.085-19.123-26.628-40.881-36.625-63.997l-0.831-2.157zM684.581-21.687c-138.528 0-250.826 112.298-250.826 250.826s112.298 250.826 250.826 250.826c138.528 0 250.826-112.298 250.826-250.826v0c-0.212-138.442-112.383-250.614-250.806-250.826h-0.021zM218.708 513.88h216.165c10.945 1.054 19.434 10.205 19.434 21.337s-8.488 20.282-19.346 21.331l-0.087 0.007h-215.792c-0.598 0.059-1.293 0.093-1.996 0.093-11.836 0-21.43-9.595-21.43-21.43s9.595-21.43 21.43-21.43c0.703 0 1.398 0.034 2.083 0.1l-0.087-0.007zM699.303 386.605c-3.865 4.228-9.404 6.869-15.56 6.869s-11.695-2.641-15.546-6.853l-0.015-0.016-124.667-134.73c-3.843-3.872-6.218-9.206-6.218-15.095s2.375-11.222 6.219-15.096l-0.001 0.001c3.879-3.499 9.041-5.638 14.703-5.638 6.228 0 11.851 2.588 15.852 6.749l0.007 0.007 88.329 94.479v-233.123c0-11.836 9.595-21.43 21.43-21.43s21.43 9.595 21.43 21.43v0 233.682l87.584-94.479c3.919-4.206 9.473-6.843 15.644-6.895h0.009c5.611 0.139 10.69 2.307 14.555 5.795l-0.020-0.018c4.333 3.936 7.041 9.593 7.041 15.881 0 5.248-1.886 10.056-5.018 13.781l0.027-0.033z" />
<glyph unicode="&#xe916;" glyph-name="invoice-check" d="M738.4 725.2c0 0 0 0 0 0v0 0zM746.5 516.3l-1.9 0.4v193.8c-0.2 5.7-2.5 10.9-6.2 14.7l-217.4 228.1c-3.9 4.1-9.3 6.7-15.4 6.7 0 0 0 0-0.1 0h-344.6c-63.2-0.2-114.4-51.5-114.4-114.8 0-0.3 0-0.5 0-0.8v-652.2c0-0.2 0-0.4 0-0.6 0-63 51.1-114 114-114 0.1 0 0.3 0 0.4 0h271.9c52.3-85.4 145.2-141.6 251.2-141.6 162.1 0 293.5 131.4 293.5 293.5 0 140.6-98.9 258.2-231 286.8zM672.7 731.9h-94.7c-28.2 0.2-50.9 22.9-51.2 51v0 102.5l145.9-153.5zM413.7 342.9l-0.8-2.2h-193.8c-0.6 0.1-1.3 0.1-2 0.1-11.8 0-21.4-9.6-21.4-21.4s9.6-21.4 21.4-21.4c0.7 0 1.4 0 2.1 0.1h179.7c-5.1-20.5-8-44-8-68.2 0-0.2 0-0.4 0-0.6s0-0.5 0-0.7c0-37.9 7.4-74.1 20.8-107.2h-250.8c-0.1 0-0.1 0-0.2 0-39.5 0-71.6 32-71.6 71.6 0 0.1 0 0.3 0 0.4v651.1c0 0.2 0 0.5 0 0.7 0 39.7 32.1 71.9 71.7 72.1h323.1v-134.3c0 0 0 0 0 0 0-51.6 41.6-93.6 93.1-94.1h124v-166.6c-6.5 0-11.6 0-17.1 0-74.2-0.3-142-27.6-194-72.7h-271c-0.6 0.1-1.3 0.1-2 0.1-11.8 0-21.4-9.6-21.4-21.4s9.6-21.4 21.4-21.4c0.7 0 1.4 0 2.1 0.1h231.2c-13.9-19.2-26.5-41-36.5-64.1zM684.6-21.7v0c-138.5 0-250.8 112.3-250.8 250.8s112.3 250.9 250.8 250.9 250.8-112.3 250.8-250.8c-0.2-138.5-112.4-250.7-250.8-250.9zM217.1 513.8c0.6 0 1.3 0 1.9 0.1h215.9c10.9 1.1 19.4 10.2 19.4 21.3s-8.5 20.3-19.3 21.3h-215.9c-0.6 0.1-1.3 0.1-2 0.1-11.8 0-21.4-9.6-21.4-21.4s9.6-21.4 21.4-21.4zM219.2 513.9v0h-0.1c0 0 0 0 0.1 0zM795 324.5l-145.1-145.2-76.5 76.5c-8.4 8.4-22 8.4-30.4 0s-8.4-22 0-30.4l106.9-106.9 175.6 175.6c8.4 8.4 8.4 22 0 30.4s-22.1 8.4-30.5 0z" />
<glyph unicode="&#xe917;" glyph-name="help" d="M516.592 951.997c-142.314 0-298.329-66.21-308.984-256.47-0.030-0.468-0.046-1.014-0.046-1.562 0-14.192 11.099-25.791 25.089-26.593l0.071-0.003h94.369c0.294-0.010 0.64-0.015 0.987-0.015 16.318 0 29.779 12.227 31.722 28.018l0.016 0.155c6.182 72.181 66.297 128.427 139.55 128.427 4.456 0 8.865-0.209 13.215-0.615l-0.557 0.042c3.885 0.411 8.393 0.647 12.955 0.647 71.873 0 130.138-58.265 130.138-130.138 0-0.763-0.007-1.523-0.020-2.283l0.002 0.114c0-70.778-41.858-104.263-108.068-152.208-78.664-44.427-130.905-127.481-130.905-222.737 0-0.622 0.002-1.244 0.007-1.864l-0.001 0.095v-24.353c0.424-15.22 12.864-27.397 28.148-27.397 0.004 0 0.007 0 0.011 0h91.324c0.003 0 0.007 0 0.010 0 15.283 0 27.723 12.177 28.147 27.358l0.001 0.039v12.177c0 80.672 30.442 104.263 112.634 166.668 81.932 46.331 137.035 131.704 140.021 230.185l0.010 0.41c0 169.712-143.076 251.906-299.849 251.906zM496.044 153.666c-2.676 0.242-5.788 0.381-8.932 0.381-58.003 0-105.023-47.021-105.023-105.023s47.021-105.023 105.023-105.023c3.144 0 6.257 0.138 9.33 0.409l-0.399-0.029c2.676-0.242 5.788-0.381 8.932-0.381 58.003 0 105.023 47.021 105.023 105.023s-47.021 105.023-105.023 105.023c-3.144 0-6.257-0.138-9.33-0.409l0.399 0.029z" />
<glyph unicode="&#xe918;" glyph-name="help-rounded" d="M512 960c-282.77 0-512-229.23-512-512s229.23-512 512-512c282.77 0 512 229.23 512 512v0c0 282.77-229.23 512-512 512v0zM512 35.328c-227.912 0-412.672 184.76-412.672 412.672s184.76 412.672 412.672 412.672c227.912 0 412.672-184.76 412.672-412.672v0c0.007-0.916 0.012-2 0.012-3.084 0-226.216-183.384-409.6-409.6-409.6-1.084 0-2.168 0.004-3.25 0.013l0.166-0.001zM502.784 288.768c-1.807 0.163-3.908 0.256-6.031 0.256-39.305 0-71.168-31.863-71.168-71.168s31.863-71.168 71.168-71.168c2.123 0 4.224 0.093 6.3 0.275l-0.269-0.019c1.807-0.163 3.908-0.256 6.031-0.256 39.305 0 71.168 31.863 71.168 71.168s-31.863 71.168-71.168 71.168c-2.123 0-4.224-0.093-6.3-0.275l0.269 0.019zM514.56 749.568c-87.040 0-182.272-41.472-188.928-158.208 0-14.704 11.92-26.624 26.624-26.624v0h51.2c14.236 0.41 25.846 11.137 27.633 24.944l0.015 0.144c3.623 35.947 33.722 63.772 70.32 63.772 3.733 0 7.398-0.289 10.974-0.847l-0.398 0.051c2.462 0.323 5.31 0.507 8.2 0.507 36.398 0 65.973-29.216 66.551-65.477l0.001-0.054c0-35.328-18.944-51.2-58.368-80.384-48.648-27.035-81.288-77.675-82.43-136.034l-0.002-0.158v-14.336c0.566-14.54 12.49-26.112 27.117-26.112 0.007 0 0.014 0 0.020 0h51.199c0.152-0.003 0.332-0.005 0.512-0.005 14.704 0 26.624 11.92 26.624 26.624 0 0.002 0 0.003 0 0.005v0 6.656c0 41.472 13.824 51.2 60.928 88.064 49.882 28.579 83.336 80.86 84.987 141.083l0.005 0.229c1.024 107.52-91.648 155.648-182.784 155.648z" />
<glyph unicode="&#xe919;" glyph-name="warning-rounded-light" d="M512 960c-282.77 0-512-229.23-512-512s229.23-512 512-512c282.77 0 512 229.23 512 512v0c0 282.77-229.23 512-512 512v0zM512 0c-247.424 0-448 200.576-448 448s200.576 448 448 448c247.424 0 448-200.576 448-448v0c0-247.424-200.576-448-448-448v0zM512 384c0.806-0.065 1.746-0.101 2.694-0.101 18.703 0 34.060 14.326 35.696 32.604l0.010 0.138 19.2 223.36c0.308 1.828 0.484 3.933 0.484 6.080s-0.176 4.252-0.515 6.303l0.030-0.223c-5.802 26.529-29.096 46.097-56.96 46.097-32.165 0-58.24-26.075-58.24-58.24 0-0.006 0-0.012 0-0.018v0.001l22.4-224c1.987-17.925 16.941-31.772 35.177-32h0.023zM512 320c-35.346 0-64-28.654-64-64s28.654-64 64-64c35.346 0 64 28.654 64 64v0c0 35.346-28.654 64-64 64v0z" />
<glyph unicode="&#xe91a;" glyph-name="warning-rounded" d="M512.522 960c-0.155 0-0.338 0-0.522 0-282.77 0-512-229.23-512-512s229.23-512 512-512c282.77 0 512 229.23 512 512v0c0 282.587-228.933 511.703-511.45 512h-0.028zM512.522 35.585c-0.155 0-0.338 0-0.521 0-228.059 0-412.936 184.878-412.936 412.936s184.878 412.936 412.936 412.936c228.059 0 412.936-184.878 412.936-412.936 0-0.183 0-0.367 0-0.55v0.028c0-227.771-184.645-412.416-412.416-412.416v0zM512.522 708.692c-1.118 0.049-2.431 0.076-3.75 0.076-19.217 0-37.062-5.874-51.838-15.924l0.321 0.206c-13.384-9.564-22.005-25.049-22.005-42.548 0-1.172 0.039-2.337 0.115-3.49l-0.008 0.157c-0.179-1.486-0.281-3.208-0.281-4.953s0.102-3.466 0.301-5.158l-0.020 0.205 38.061-250.786c2.981-19.484 19.622-34.237 39.709-34.237 9.463 0 18.161 3.274 25.023 8.751l-0.081-0.062c6.967 6.481 11.589 15.401 12.502 25.393l0.011 0.155 37.54 253.915c0.283 1.567 0.445 3.372 0.445 5.214s-0.162 3.646-0.473 5.399l0.027-0.185c0.011 0.391 0.017 0.851 0.017 1.311 0 17.46-8.583 32.915-21.759 42.378l-0.156 0.107c-13.892 8.905-30.843 14.197-49.030 14.197-1.644 0-3.277-0.043-4.9-0.129l0.227 0.010zM512.522 312.962c-0.897 0.038-1.949 0.060-3.006 0.060-18.832 0-36.045-6.933-49.224-18.387l0.092 0.078c-12.522-10.864-20.395-26.802-20.395-44.578s7.873-33.714 20.322-44.516l0.073-0.062c13.088-11.375 30.301-18.309 49.133-18.309 1.057 0 2.109 0.022 3.155 0.065l-0.15-0.005c1.119-0.061 2.43-0.096 3.748-0.096 18.6 0 35.575 6.956 48.464 18.41l-0.075-0.065c12.522 10.864 20.395 26.802 20.395 44.578s-7.873 33.714-20.322 44.516l-0.073 0.062c-12.815 11.388-29.79 18.345-48.39 18.345-1.318 0-2.629-0.035-3.93-0.104l0.182 0.008z" />
<glyph unicode="&#xe91b;" glyph-name="cross" d="M1023.484 856.774l-103.226 103.226-408.774-408.774-408.258 408.774-103.226-103.226 408.774-408.774-408.774-408.774 103.226-103.226 408.774 408.774 408.774-408.774 103.226 103.226-408.774 408.774 408.258 408.774z" />
<glyph unicode="&#xe91c;" glyph-name="cross-bold" d="M1009.024 103.337c9.237-9.249 14.949-22.019 14.949-36.124s-5.712-26.875-14.949-36.125l-80.084-80.084c-9.249-9.237-22.019-14.949-36.124-14.949s-26.875 5.712-36.125 14.949l-344.69 344.555-344.664-344.61c-9.249-9.237-22.019-14.949-36.124-14.949s-26.875 5.712-36.125 14.949l-80.111 80.111c-9.237 9.249-14.949 22.019-14.949 36.124s5.712 26.875 14.949 36.125l344.69 344.69-344.691 344.691c-9.237 9.249-14.949 22.019-14.949 36.124s5.712 26.875 14.949 36.125l79.976 80.084c9.249 9.237 22.019 14.949 36.124 14.949s26.875-5.712 36.125-14.949l344.69-344.717 344.773 344.745c9.249 9.237 22.019 14.949 36.124 14.949s26.875-5.712 36.125-14.949l-0.001 0.001 79.976-80.112c9.237-9.249 14.949-22.019 14.949-36.124s-5.712-26.875-14.949-36.125l-344.69-344.69z" />
<glyph unicode="&#xe91d;" glyph-name="cross-rounded-light" d="M511.998 959.998c-282.402 0-511.998-229.595-511.998-511.998 0-283.55 229.595-511.998 511.998-511.998s511.998 229.595 511.998 511.998c1.148 282.402-228.448 511.998-511.998 511.998zM511.998-0.858c-247.962 0-448.858 200.896-448.858 448.858s200.896 448.858 448.858 448.858 448.858-200.896 448.858-448.858c0-247.962-200.896-448.858-448.858-448.858zM706.006 640.861c-18.367 18.367-47.067 18.367-65.435 0l-128.573-128.573-127.425 128.573c-18.367 18.367-47.067 18.367-65.435 0s-18.367-47.067 0-65.435l128.573-127.425-128.573-128.573c-18.367-18.367-18.367-47.067 0-65.435 9.184-9.184 20.664-13.775 32.144-13.775s22.96 4.592 32.144 13.775l128.573 128.573 128.573-128.573c9.184-9.184 20.664-13.775 32.144-13.775s22.96 4.592 32.144 13.775c18.367 18.367 18.367 47.067 0 65.435l-127.425 128.573 128.573 128.573c17.219 17.219 17.219 45.919 0 64.287z" />
<glyph unicode="&#xe91e;" glyph-name="cross-rounded" d="M1023.9 447.8v-0.5c0.1 3.2 0.1 6.5 0.1 9.7 0 274.5-228.1 497.7-512 503h-0.5c-283.4-5.3-511.5-228.5-511.5-503 0-3.2 0-6.5 0.1-9.2v0.5c-0.1-3.1-0.1-6.2-0.1-9.3 0-274.5 228.1-497.7 512-503h0.5c283.4 5.3 511.5 228.5 511.5 503 0 3.1 0 6.2-0.1 8.8v0zM512.5 35h-0.4c-228.5 4.3-412.4 184.2-412.4 405.5 0 2.6 0 5.1 0.1 7.3v-0.4c-0.1 2.7-0.1 5.5-0.1 8.2 0 221 183.3 400.7 411.8 405.5h0.4c228.5-4.3 412.4-184.2 412.4-405.5 0-2.7 0-5.5-0.1-7.8h0.5c0 0.1 0 0.3 0 0.4v-0.4c0-2.4 0.1-4.9 0.1-7.3 0-221.2-183.6-401-412.3-405.5zM721.9 285.1v0c0 0 0 0 0 0v0zM722.4 572.1v0c0 0 0 0 0 0v0zM301.6 609.9v0c0 0 0 0 0 0v0zM722.4 607.1l-46.9 47.8c-4.4 4.5-10.6 7.2-17.4 7.2-6.9 0-13.1-2.8-17.5-7.2l-128.6-127.7-128.6 130.6c-4.4 4.5-10.6 7.2-17.4 7.2s-13.1-2.8-17.5-7.2l-46.9-47.8c-4.4-4.6-7.1-10.7-7.1-17.5 0-6.7 2.7-12.9 7.1-17.5l129.1-124.4-128.6-127.7c-4.4-4.6-7.1-10.7-7.1-17.5 0-6.7 2.7-12.9 7.1-17.5l46.9-47.8c4.4-4.3 10.4-7 17.2-7s12.8 2.7 17.2 7l128.1 124.9 128.6-127.7c4.4-4.5 10.6-7.2 17.4-7.2 6.9 0 13.1 2.8 17.5 7.2l46.9 47.8c4.4 4.6 7.1 10.7 7.1 17.5 0 6.7-2.7 12.9-7.1 17.5l-128.6 127.7 129.1 124.4c4.4 4.6 7.1 10.7 7.1 17.5 0 6.6-2.7 12.8-7.1 17.4zM302.1 322.9v0c0 0 0 0 0 0v0z" />
<glyph unicode="&#xe91f;" glyph-name="info-rounded" d="M512 960c-282.77 0-512-229.23-512-512s229.23-512 512-512c282.77 0 512 229.23 512 512v0c0 282.77-229.23 512-512 512v0zM512 35.335c-227.908 0-412.665 184.756-412.665 412.665s184.756 412.665 412.665 412.665c227.908 0 412.665-184.756 412.665-412.665v0c0-0.157 0-0.343 0-0.529 0-227.617-184.52-412.136-412.136-412.136-0.186 0-0.372 0-0.558 0h0.029zM598.654 284.731h-28.533v235.657c0 0.001 0 0.003 0 0.005 0 15.572-12.475 28.231-27.976 28.527h-105.704c-15.758 0-28.533-12.774-28.533-28.533v0-56.537c0.297-15.529 12.955-28.004 28.528-28.004 0.002 0 0.003 0 0.005 0h28.004v-151.117h-30.118c-0.001 0-0.003 0-0.005 0-15.572 0-28.231-12.475-28.527-27.976v-56.565c0-15.758 12.774-28.533 28.533-28.533v0h164.326c15.758 0 28.533 12.774 28.533 28.533v0 56.537c-0.297 15.529-12.955 28.004-28.528 28.004-0.002 0-0.003 0-0.005 0v0zM500.904 574.811c41.438 0 75.030 33.592 75.030 75.030s-33.592 75.030-75.030 75.030c-41.438 0-75.030-33.592-75.030-75.030v0c0-41.438 33.592-75.030 75.030-75.030v0z" />
<glyph unicode="&#xe920;" glyph-name="info-rounded-filled" d="M512 960c-282.77 0-512-229.23-512-512s229.23-512 512-512 512 229.23 512 512-229.23 512-512 512zM497.9 778.26c49.44 0 89.51-40.080 89.51-89.51s-40.080-89.51-89.51-89.51-89.51 40.080-89.51 89.51 40.080 89.51 89.51 89.51zM648.55 152.3c0-18.8-15.24-34.040-34.040-34.040h-196.040c-18.8 0-34.040 15.24-34.040 34.040v67.48c0.35 18.49 15.46 33.38 34.030 33.38h35.94v180.29h-33.42c-18.58 0-33.68 14.88-34.030 33.41v67.45c0 18.8 15.24 34.040 34.040 34.040h126.11c18.49-0.35 33.38-15.46 33.38-34.030v0-281.15h34.040s0 0 0 0c18.58 0 33.68-14.88 34.030-33.41v-67.45z" />
<glyph unicode="&#xe921;" glyph-name="info-rounded-light" d="M603.089 262.181h-46.942v260.437c-0.025 6.429-5.127 11.657-11.503 11.884l-0.021 0.001h-108.747c-6.561-0.006-11.879-5.324-11.885-11.884v-58.127c0.222-6.404 5.452-11.514 11.882-11.545h46.388v-190.767h-48.56c-6.425-0.030-11.651-5.122-11.895-11.491l-0.001-0.022v-58.105c0.012-6.562 5.332-11.879 11.895-11.885h169.379c6.563 0.006 11.884 5.323 11.895 11.884v58.075c-0.227 6.401-5.454 11.508-11.881 11.545h-0.004zM502.321 596.237c33.019 0 59.785 26.767 59.785 59.785s-26.767 59.785-59.785 59.785c-33.019 0-59.785-26.767-59.785-59.785v0c0.053-32.997 26.788-59.733 59.78-59.785h0.005zM983.912 646.601c-79.619 185.689-260.852 313.399-471.912 313.399-282.77 0-512-229.23-512-512s229.23-512 512-512c282.77 0 512 229.23 512 512v0c0 0.196 0 0.428 0 0.66 0 71.483-14.743 139.522-41.354 201.244l1.267-3.303zM956.658 447.454c0-0.095 0-0.207 0-0.32 0-244.127-197.903-442.030-442.030-442.030-0.113 0-0.225 0-0.338 0h-0.528c-244.556 0.141-442.753 198.423-442.753 442.999 0 182.308 110.126 338.896 267.483 406.869l2.872 1.104c50.909 22.121 110.207 34.988 172.512 34.988 244.542 0 442.783-198.241 442.783-442.783 0-0.1 0-0.198 0-0.298v0.016z" />
<glyph unicode="&#xe922;" glyph-name="calculator" d="M327.956 731.952h-39.853v40.13c-1.521 15.372-14.384 27.28-30.028 27.28s-28.507-11.908-30.018-27.155l-0.010-0.125v-40.13h-40.13c-15.372-1.521-27.28-14.384-27.28-30.028s11.908-28.507 27.155-30.018l0.125-0.010h40.13v-39.853c-0.088-0.865-0.138-1.87-0.138-2.886 0-16.66 13.506-30.166 30.166-30.166s30.166 13.506 30.166 30.166c0 1.016-0.050 2.021-0.148 3.011l0.010-0.125v39.853h39.853c0.865-0.088 1.87-0.138 2.886-0.138 16.66 0 30.166 13.506 30.166 30.166s-13.506 30.166-30.166 30.166c-1.016 0-2.021-0.050-3.011-0.148l0.125 0.010zM803.977 702.063c0 0.003 0 0.007 0 0.012 0 16.216-12.913 29.415-29.017 29.877l-0.043 0.001h-120.943c-15.372-1.521-27.28-14.384-27.28-30.028s11.908-28.507 27.155-30.018l0.125-0.010h120.943c16.147 0.462 29.061 13.662 29.061 29.878 0 0.101-0.001 0.203-0.002 0.304v-0.015zM784.051 226.041h-140.039c-15.372-1.521-27.28-14.384-27.28-30.028s11.908-28.507 27.155-30.018l0.125-0.010h140.039c15.372 1.521 27.28 14.384 27.28 30.028s-11.908 28.507-27.155 30.018l-0.125 0.010zM784.051 325.95h-140.039c-15.372-1.521-27.28-14.384-27.28-30.028s11.908-28.507 27.155-30.018l0.125-0.010h140.039c15.372 1.521 27.28 14.384 27.28 30.028s-11.908 28.507-27.155 30.018l-0.125 0.010zM329.34 317.094c-5.426 5.514-12.969 8.931-21.31 8.931s-15.884-3.417-21.306-8.927l-27.68-27.68-27.676 27.676c-5.381 5.499-12.878 8.908-21.172 8.908s-15.791-3.409-21.167-8.903l-0.005-0.005c-5.365-5.443-8.678-12.92-8.678-21.172s3.313-15.729 8.681-21.175l27.672-27.672-27.676-27.676c-5.418-5.418-8.77-12.904-8.77-21.172 0-16.536 13.405-29.942 29.942-29.942 8.268 0 15.754 3.351 21.172 8.77l27.676 27.676 27.676-27.676c5.452-5.462 12.985-8.844 21.308-8.856h0.002c8.315 0.076 15.828 3.443 21.313 8.859l-0.003-0.003c5.365 5.443 8.678 12.92 8.678 21.172s-3.313 15.729-8.681 21.175l-27.672 27.672 27.676 27.676c5.365 5.443 8.678 12.92 8.678 21.172s-3.313 15.729-8.681 21.175l0.004-0.004zM971.969 417.557v452.497c-0.157 49.613-40.333 89.789-89.931 89.946h-792.092c-49.613-0.157-89.789-40.333-89.946-89.931v-792.092c0.157-49.613 40.333-89.789 89.931-89.946h452.512c47.997-32.59 107.214-52.031 170.973-52.031 0.217 0 0.434 0 0.65 0.001h-0.034c171.127 0.158 309.81 138.841 309.968 309.952v0.015c0 0.183 0.001 0.4 0.001 0.616 0 63.759-19.441 122.977-52.719 172.049l0.688-1.076zM515.874 899.944h366.149c0.413 0.020 0.897 0.032 1.384 0.032 16.508 0 29.89-13.382 29.89-29.89 0-0.011 0-0.023 0-0.034v0.002-385.799c-53.242 44.586-122.469 71.663-198.019 71.663s-144.778-27.078-198.504-72.058l0.485 0.395zM60.055 870.054c0 16.508 13.382 29.89 29.89 29.89v0h366.149v-396.039h-396.039zM89.945 46.703c-16.508 0-29.89 13.382-29.89 29.89v0 367.533h396.039v-27.676c-32.672-48.235-52.159-107.719-52.159-171.754 0-75.566 27.137-144.794 72.198-198.469l-0.389 0.476zM714.031-3.944c-137.564 0-249.081 111.517-249.081 249.081s111.517 249.081 249.081 249.081c137.564 0 249.081-111.517 249.081-249.081v0c0-137.564-111.517-249.081-249.081-249.081v0z" />
<glyph unicode="&#xe923;" glyph-name="plus-rounded" d="M1024 448c0-282.77-229.23-512-512-512s-512 229.23-512 512c0 282.77 229.23 512 512 512v0c282.77 0 512-229.23 512-512v0zM543.902 672.098c0 17.619-14.283 31.902-31.902 31.902s-31.902-14.283-31.902-31.902v0-192.197h-192.197c-17.619 0-31.902-14.283-31.902-31.902s14.283-31.902 31.902-31.902h192.197v-192.197c0-17.619 14.283-31.902 31.902-31.902s31.902 14.283 31.902 31.902v0 192.197h192.197c17.619 0 31.902 14.283 31.902 31.902s-14.283 31.902-31.902 31.902h-192.197z" />
<glyph unicode="&#xe924;" glyph-name="minus-rounded" d="M1024 448c0-282.77-229.23-512-512-512s-512 229.23-512 512c0 282.77 229.23 512 512 512v0c282.77 0 512-229.23 512-512v0zM287.902 479.902c-17.619 0-31.902-14.283-31.902-31.902s14.283-31.902 31.902-31.902h448.197c17.619 0 31.902 14.283 31.902 31.902s-14.283 31.902-31.902 31.902v0z" />
<glyph unicode="&#xe925;" glyph-name="trash" d="M875.999 786.342v-52.697c-0.39-14.25-12.035-25.657-26.338-25.657-0.004 0-0.008 0-0.012 0h-675.301c-0.003 0-0.007 0-0.011 0-14.309 0-25.951 11.408-26.338 25.613l-0.001 0.032v52.697c0.39 14.25 12.035 25.657 26.338 25.657 0.004 0 0.008 0 0.012 0h194.822l15.257 30.503c7.041 12.335 19.788 20.699 34.556 21.492l0.107 0.006h185.817c14.874-0.798 27.634-9.163 34.554-21.29l0.11-0.207 15.257-30.503h194.823c0.003 0 0.007 0 0.011 0 14.309 0 25.951-11.408 26.338-25.613l0.001-0.032zM199.999 655.999h623.999l-34.663-554.662c-4.663-39.158-37.629-69.237-77.646-69.337h-399.372c-40.016 0.088-72.982 30.179-77.613 68.964l-0.032 0.374z" />
<glyph unicode="&#xe926;" glyph-name="plus-bold" d="M914.286 557.714h-292.572v292.572c0 60.594-49.122 109.714-109.714 109.714s-109.714-49.122-109.714-109.714v0-292.572h-292.572c-60.594 0-109.714-49.122-109.714-109.714s49.122-109.714 109.714-109.714v0h292.572v-292.572c0-60.594 49.122-109.714 109.714-109.714s109.714 49.122 109.714 109.714v0 292.572h292.572c60.594 0 109.714 49.122 109.714 109.714s-49.122 109.714-109.714 109.714v0z" />
<glyph unicode="&#xe927;" glyph-name="minus-bold" d="M109.714 557.714h804.571c60.594 0 109.714-49.121 109.714-109.714s-49.121-109.714-109.714-109.714h-804.571c-60.594 0-109.714 49.121-109.714 109.714s49.121 109.714 109.714 109.714z" />
<glyph unicode="&#xe928;" glyph-name="increase" d="M634.396 732.148h-368.593c-62.902 0-113.895 50.992-113.895 113.895s50.992 113.895 113.895 113.895v0h644.302c0 0 0 0 0.001 0 62.773 0 113.685-50.783 113.894-113.506v-644.322c0-62.902-50.992-113.895-113.895-113.895s-113.895 50.992-113.895 113.895v0 368.593l-611.128-609.653c-19.314-15.567-44.15-24.987-71.187-24.987-62.902 0-113.895 50.992-113.895 113.895 0 27.313 9.614 52.381 25.643 72.003l-0.162-0.205z" />
<glyph unicode="&#xe929;" glyph-name="decrease" d="M795.458 325.771v369.804c0 63.109 51.16 114.27 114.27 114.27s114.27-51.16 114.27-114.27v0-646.416c-0.621-62.245-50.915-112.54-113.101-113.159h-646.844c-63.109 0-114.27 51.16-114.27 114.27s51.16 114.27 114.27 114.27v0h369.804l-610.545 612.024c-14.547 18.973-23.31 43.046-23.31 69.166 0 63.109 51.16 114.27 114.27 114.27 26.12 0 50.193-8.764 69.439-23.511l-0.273 0.201z" />
<glyph unicode="&#xe92a;" glyph-name="equal" d="M107.495 553.475h809.010c60.097 3.534 107.495 53.133 107.495 113.802s-47.398 110.269-107.184 113.787l-0.31 0.014h-809.010c-60.097-3.534-107.495-53.133-107.495-113.802s47.398-110.269 107.184-113.787l0.31-0.014zM916.505 342.525h-809.010c-60.097-3.534-107.495-53.133-107.495-113.802s47.398-110.269 107.184-113.787l0.31-0.014h809.010c60.097 3.534 107.495 53.133 107.495 113.802s-47.398 110.269-107.184 113.787l-0.31 0.014z" />
<glyph unicode="&#xe92b;" glyph-name="check" d="M14.010 412.167c-8.658 8.879-13.999 21.030-13.999 34.427 0 0.66 0.013 1.316 0.039 1.97l-0.003-0.094c-0.030 0.623-0.047 1.354-0.047 2.088 0 13.039 5.361 24.825 14.001 33.274l0.008 0.008 79.12 72.604c8.248 9.707 20.466 15.825 34.113 15.825 0.115 0 0.231-0.001 0.346-0.001h-0.018c14.567-0.268 27.682-6.264 37.232-15.823l0.001-0.001 223.397-224.328 475.65 480.304c9.55 9.56 22.667 15.556 37.182 15.823l0.051 0.001c0.097 0.001 0.213 0.001 0.328 0.001 13.647 0 25.864-6.118 34.060-15.761l0.053-0.064 74.466-72.604c8.647-8.458 14.010-20.244 14.010-33.283 0-0.734-0.017-1.465-0.051-2.191l0.004 0.103c0.022-0.559 0.036-1.216 0.036-1.876 0-13.398-5.34-25.547-14.008-34.437l0.010 0.010-590.141-584.556c-8.731-9.735-21.349-15.832-35.391-15.832-0.32 0-0.64 0.003-0.958 0.010l0.048-0.001c-0.12-0.001-0.263-0.001-0.405-0.001-13.91 0-26.394 6.101-34.922 15.775l-0.044 0.051z" />
<glyph unicode="&#xe92c;" glyph-name="check-light" d="M898.843 796.873l-504.787-505.403-266.245 266.245c-13.549 13.549-32.266 21.929-52.941 21.929-41.35 0-74.87-33.521-74.87-74.87 0-20.675 8.38-39.392 21.929-52.941l372.127-371.819 610.977 610.977c11.773 13.2 18.967 30.706 18.967 49.891 0 41.478-33.624 75.103-75.103 75.103-19.262 0-36.831-7.252-50.125-19.174l0.071 0.062z" />
<glyph unicode="&#xe92d;" glyph-name="check-rounded-light" d="M512 960c-281.6 0-512-230.4-512-512s230.4-512 512-512 512 230.4 512 512-230.4 512-512 512zM512 0c-249.6 0-448 198.4-448 448s198.4 448 448 448 448-198.4 448-448-198.4-448-448-448zM704 640c0 0 0 0 0 0l-224-281.6-134.4 134.4c-19.2 19.2-51.2 12.8-70.4-6.4s-19.2-44.8 0-64l172.8-166.4c19.2-19.2 51.2-19.2 70.4 0 0 0 0 0 0 0l256 320c19.2 19.2 19.2 51.2 0 70.4-25.6 12.8-51.2 12.8-70.4-6.4z" />
<glyph unicode="&#xe92e;" glyph-name="speed" d="M215.597 625.101h629.857c20.297 0.407 36.644 16.753 37.050 37.012v0.038c-0.407 20.297-16.753 36.644-37.012 37.050h-629.895c-17.428-3.595-30.344-18.814-30.344-37.050s12.917-33.455 30.1-37.008l0.245-0.042zM766.907 447.259c0.005 0.221 0.007 0.48 0.007 0.741 0 20.462-16.588 37.050-37.050 37.050-0.002 0-0.005 0-0.008 0h-699.512c-17.428-3.595-30.344-18.814-30.344-37.050s12.917-33.455 30.1-37.008l0.245-0.042h699.512c0.002 0 0.005 0 0.007 0 20.202 0 36.627 16.169 37.042 36.271v0.039zM993.656 270.899h-629.857c-17.428-3.595-30.344-18.814-30.344-37.050s12.917-33.455 30.1-37.008l0.245-0.042h629.857c17.428 3.595 30.344 18.814 30.344 37.050s-12.917 33.455-30.1 37.008l-0.245 0.042z" />
<glyph unicode="&#xe92f;" glyph-name="stopwatch" d="M701.043 560.552c-9.377 9.108-22.19 14.723-36.313 14.723s-26.936-5.615-36.326-14.736l0.013 0.012-152.703-153.634c-9.108-9.377-14.723-22.19-14.723-36.313s5.615-26.936 14.736-36.326l-0.012 0.013c9.377-9.108 22.19-14.723 36.313-14.723s26.936 5.615 36.326 14.736l-0.013-0.012 152.703 152.703c9.514 9.235 15.513 22.044 15.828 36.255l0.001 0.058c-0.101 14.434-5.752 27.528-14.924 37.272l0.026-0.028zM853.746 639.697l30.727 30.727c9.682 9.123 15.738 22.002 15.829 36.297v0.017c-0.101 14.434-5.752 27.528-14.924 37.272l0.026-0.028c-9.771 8.58-22.664 13.814-36.779 13.814s-27.008-5.235-36.842-13.869l0.063 0.054-30.727-31.658c-59.95 48.713-134.251 82.028-215.657 92.87l-2.224 0.242v51.211h25.141c28.797 0 52.143 23.345 52.143 52.143v0c-0.523 28.394-23.664 51.211-52.135 51.211-0.003 0-0.006 0-0.009 0h-152.703c-0.002 0-0.005 0-0.008 0-28.47 0-51.612-22.817-52.134-51.162l-0.001-0.049c0-28.797 23.345-52.143 52.143-52.143v0h25.141v-54.005c-217.114-26.479-383.648-209.696-383.648-431.809 0-240.151 194.681-434.832 434.832-434.832s434.832 194.681 434.832 434.832c0 101.913-35.060 195.637-93.777 269.769l0.692-0.906zM512.027 39.127c-183.070 0-331.478 148.407-331.478 331.478s148.407 331.478 331.478 331.478c183.070 0 331.478-148.407 331.478-331.478v0c-0.528-182.858-148.62-330.95-331.427-331.478h-0.050z" />
<glyph unicode="&#xe930;" glyph-name="facebook" d="M512 960c-282.77 0-512-229.23-512-512s229.23-512 512-512c282.77 0 512 229.23 512 512v0 0c0 282.77-229.23 512-512 512v0zM676.73 651.91h-101.955c-12.021 0-25.377-16.473-25.377-37.843v-64.111h127.332v-124.216h-127.332v-304.083h-125.997v304.083h-101.51v124.216h101.51v62.776c-0.116 0.736-0.183 1.585-0.183 2.449s0.067 1.713 0.195 2.541l-0.012-0.092c0.146 85.007 67.002 154.351 151.004 158.483l0.37 0.015h102.4z" />
<glyph unicode="&#xe931;" glyph-name="youtube" d="M418.504 336.696l230.177 119.318-230.177 118.873zM512 960c-282.77 0-512-229.23-512-512s229.23-512 512-512c282.77 0 512 229.23 512 512v0c0 282.77-229.23 512-512 512v0zM861.050 277.037c-8.597-37.634-39.589-66.070-77.918-70.746l-0.44-0.044c-67.553-6.796-145.995-10.671-225.342-10.671-15.946 0-31.855 0.157-47.726 0.468l2.376-0.037c-13.495-0.275-29.404-0.431-45.35-0.431-79.347 0-157.79 3.876-235.148 11.448l9.805-0.776c-38.769 4.719-69.761 33.156-78.24 70.176l-0.118 0.613c-8.271 42.693-13.003 91.791-13.003 141.994 0 10.188 0.195 20.33 0.581 30.423l-0.044-1.454c-0.35 8.605-0.55 18.705-0.55 28.851 0 50.264 4.9 99.385 14.248 146.909l-0.786-4.797c7.908 37.859 39.031 66.569 77.517 70.755l0.396 0.035c67.591 6.794 146.082 10.668 225.477 10.668 15.898 0 31.759-0.155 47.582-0.465l-2.368 0.037c13.495 0.275 29.404 0.431 45.35 0.431 79.347 0 157.79-3.876 235.148-11.448l-9.805 0.776c38.769-4.719 69.761-33.156 78.24-70.176l0.118-0.613c8.271-42.693 13.003-91.791 13.003-141.994 0-10.188-0.195-20.33-0.581-30.423l0.044 1.454c0.342-8.639 0.537-18.781 0.537-28.969 0-50.203-4.732-99.301-13.774-146.872l0.771 4.878z" />
<glyph unicode="&#xe932;" glyph-name="euro-rounded" d="M512 960c-282.77 0-512-229.23-512-512s229.23-512 512-512c282.77 0 512 229.23 512 512v0c0 282.77-229.23 512-512 512v0zM512 5.547c-244.36 0-442.453 198.093-442.453 442.453s198.093 442.453 442.453 442.453c244.36 0 442.453-198.093 442.453-442.453v0c-0.243-244.263-198.191-442.211-442.431-442.453h-0.023zM544 635.733c28.287-0.038 54.478-8.979 75.931-24.17l-0.411 0.276c5.281-3.687 11.836-5.891 18.905-5.891 2.523 0 4.981 0.281 7.344 0.813l-0.222-0.042c9.474 1.573 17.469 6.909 22.538 14.388l0.076 0.118c3.756 5.449 5.999 12.192 5.999 19.46 0 11.941-6.056 22.467-15.263 28.675l-0.123 0.078c-31.933 21.649-71.32 34.563-113.723 34.563-0.369 0-0.739-0.001-1.108-0.003h0.057c-97.412-3.572-178.932-67.775-208.177-155.831l-0.463-1.609h-46.080c-19.323 0-34.987-15.664-34.987-34.987s15.664-34.987 34.987-34.987v0h31.147v-4.693c-0.209-3.57-0.329-7.744-0.329-11.947s0.119-8.377 0.355-12.521l-0.026 0.574c-0.209-3.57-0.329-7.744-0.329-11.947s0.119-8.377 0.355-12.521l-0.026 0.574v-4.693h-31.147c-19.323 0-34.987-15.664-34.987-34.987s15.664-34.987 34.987-34.987v0h46.080c29.493-89.812 111.137-154.13 208.262-157.43l0.378-0.010c42.961 0.317 82.702 13.84 115.436 36.705l-0.662-0.438c9.243 6.39 15.221 16.931 15.221 28.869 0 7.207-2.179 13.905-5.914 19.471l0.080-0.126c-5.087 7.475-12.897 12.771-21.975 14.474l-0.212 0.033c-2.079 0.428-4.469 0.674-6.916 0.674-7.265 0-14.025-2.162-19.673-5.877l0.135 0.084c-21.042-14.915-47.233-23.855-75.511-23.893h-0.009c-58.624 2.854-108.365 38.163-131.87 88.233l-0.397 0.94h100.267c19.323 0 34.987 15.664 34.987 34.987s-15.664 34.987-34.987 34.987v0h-122.027c-1.359 8.591-2.135 18.498-2.135 28.587s0.776 19.995 2.272 29.664l-0.137-1.078h154.027c19.323 0 34.987 15.664 34.987 34.987s-15.664 34.987-34.987 34.987v0h-132.267c24.346 50.316 73.982 84.949 131.948 87.456l0.319 0.011z" />
<glyph unicode="&#xe933;" glyph-name="energy-rounded" d="M512 960c-282.77 0-512-229.23-512-512s229.23-512 512-512c282.77 0 512 229.23 512 512v0c0 282.77-229.23 512-512 512v0zM512 5.547c-244.36 0-442.453 198.093-442.453 442.453s198.093 442.453 442.453 442.453c244.36 0 442.453-198.093 442.453-442.453v0c-0.243-244.263-198.191-442.211-442.431-442.453h-0.023zM706.56 541.013h-142.507l19.2 228.693c0.061 0.691 0.096 1.496 0.096 2.308 0 12.145-7.806 22.466-18.675 26.22l-0.195 0.059c-2.778 1.007-5.985 1.59-9.328 1.59-9.791 0-18.415-4.997-23.461-12.58l-0.065-0.103-237.653-366.933c-2.528-4.14-4.024-9.148-4.024-14.507s1.497-10.367 4.094-14.631l-0.070 0.124c4.793-8.707 13.907-14.509 24.377-14.509 0.13 0 0.259 0.001 0.389 0.003h142.060l-19.2-250.453c-0.038-0.553-0.060-1.197-0.060-1.847 0-12.606 8.159-23.306 19.485-27.107l0.202-0.059c2.484-0.795 5.342-1.253 8.307-1.253 10.183 0 19.104 5.405 24.050 13.503l0.070 0.124 237.653 388.693c2.413 4.028 3.84 8.888 3.84 14.080s-1.427 10.052-3.91 14.207l0.070-0.127c-4.9 8.716-14.088 14.507-24.629 14.507-0.041 0-0.083 0-0.124 0h0.006zM505.6 238.507l12.8 164.267c0.037 0.542 0.058 1.176 0.058 1.814 0 7.351-2.775 14.054-7.334 19.119l0.023-0.026c-5.161 5.752-12.61 9.362-20.902 9.387h-120.751l148.48 228.267-12.373-147.627c-0.027-0.482-0.043-1.047-0.043-1.615 0-7.549 2.762-14.454 7.33-19.758l-0.033 0.040c5.303-5.472 12.699-8.89 20.894-8.96h122.466z" />
<glyph unicode="&#xe934;" glyph-name="checklist-rounded" d="M512 960c-282.77 0-512-229.23-512-512s229.23-512 512-512c282.77 0 512 229.23 512 512v0c0 282.77-229.23 512-512 512v0zM512 5.547c-244.36 0-442.453 198.093-442.453 442.453s198.093 442.453 442.453 442.453c244.36 0 442.453-198.093 442.453-442.453v0c-0.243-244.263-198.191-442.211-442.431-442.453h-0.023zM289.28 668.587c-0.381 0.010-0.83 0.015-1.28 0.015-29.455 0-53.333-23.878-53.333-53.333s23.878-53.333 53.333-53.333c29.45 0 53.325 23.869 53.333 53.317v0.001c0 0.005 0 0.010 0 0.015 0 29.005-23.154 52.602-51.987 53.317l-0.066 0.001zM289.28 501.333c-0.381 0.010-0.83 0.015-1.28 0.015-29.455 0-53.333-23.878-53.333-53.333s23.878-53.333 53.333-53.333c29.45 0 53.325 23.869 53.333 53.317v0.001c0 0.005 0 0.010 0 0.015 0 29.005-23.154 52.602-51.987 53.317l-0.066 0.001zM289.28 334.080c-0.381 0.010-0.83 0.015-1.28 0.015-29.455 0-53.333-23.878-53.333-53.333s23.878-53.333 53.333-53.333c29.45 0 53.325 23.869 53.333 53.317v0.001c0 0.005 0 0.010 0 0.015 0 29.005-23.154 52.602-51.987 53.317l-0.066 0.001zM754.773 648.533h-328.107c-18.38 0-33.28-14.9-33.28-33.28s14.9-33.28 33.28-33.28h326.4c18.38 0 33.28 14.9 33.28 33.28s-14.9 33.28-33.28 33.28v0zM754.773 481.28h-328.107c-18.38 0-33.28-14.9-33.28-33.28s14.9-33.28 33.28-33.28v0h326.4c18.38 0 33.28 14.9 33.28 33.28s-14.9 33.28-33.28 33.28v0zM754.773 314.027h-328.107c-18.38 0-33.28-14.9-33.28-33.28s14.9-33.28 33.28-33.28v0h326.4c18.38 0 33.28 14.9 33.28 33.28s-14.9 33.28-33.28 33.28v0z" />
<glyph unicode="&#xe935;" glyph-name="bank-card-rounded" d="M512 960c-282.77 0-512-229.23-512-512s229.23-512 512-512 512 229.23 512 512-229.23 512-512 512zM512.020 5.55h-0.020c-244.36 0-442.45 198.090-442.45 442.45s198.090 442.45 442.45 442.45 442.45-198.090 442.45-442.45c-0.24-244.26-198.19-442.21-442.43-442.45zM307.22 311.63h20.48c18.74 0 33.98 15.24 33.98 33.98v20.48c0 18.74-15.24 33.98-33.98 33.98h-20.48c-18.74 0-33.98-15.24-33.98-33.98v-20.48c0-18.74 15.24-33.98 33.98-33.98zM767.98 686.76h-511.96c-46.97 0-85.17-38.21-85.17-85.17v-307.18c0-46.97 38.21-85.17 85.17-85.17h511.96c46.97 0 85.17 38.21 85.17 85.17v307.18c0 46.97-38.21 85.17-85.17 85.17zM785.2 294.41c0-9.49-7.72-17.22-17.22-17.22h-511.96c-9.49 0-17.22 7.72-17.22 17.22v211.76h546.4v-211.76zM785.2 574.13h-546.4v27.46c0 9.49 7.72 17.22 17.22 17.22h511.96c9.49 0 17.22-7.72 17.22-17.22v-27.46z" />
<glyph unicode="&#xe936;" glyph-name="bank-rounded" d="M512 960c-282.77 0-512-229.23-512-512s229.23-512 512-512 512 229.23 512 512-229.23 512-512 512zM512.020 5.55h-0.020c-244.36 0-442.45 198.090-442.45 442.45s198.090 442.45 442.45 442.45 442.45-198.090 442.45-442.45c-0.24-244.26-198.19-442.21-442.43-442.45zM778.96 641.6l-253.3 136.39c-8.55 4.61-18.75 4.61-27.29 0l-253.32-136.39c-15.95-8.58-25.86-25.15-25.86-43.25v-28.49c0-27.080 22.030-49.12 49.12-49.12h11.81v-186.080h-11.81c-27.080 0-49.12-22.030-49.12-49.12v-40.62c0-27.080 22.030-49.12 49.12-49.12h487.39c27.080 0 49.12 22.030 49.12 49.12v40.62c0 27.080-22.030 49.12-49.12 49.12h-11.81v186.080h11.81c27.080 0 49.12 22.030 49.12 49.12v28.49c0 18.11-9.91 34.69-25.85 43.25zM747.2 277.050v-23.62h-470.39v23.62h470.39zM337.73 334.67v186.080h43.92v-186.080h-43.92zM439.27 334.67v186.080h43.92v-186.080h-43.92zM540.81 334.67v186.080h43.92v-186.080h-43.92zM642.37 334.67v186.080h43.92v-186.080h-43.92zM747.2 578.36h-470.39v14.92l235.2 126.63 235.2-126.63v-14.92z" />
<glyph unicode="&#xe937;" glyph-name="heart" d="M769.907 796.366c-120.12 0-191.442-111.862-225.223-173.422-37.538 61.561-108.859 173.422-228.98 173.422-137.328-1.514-248.074-113.192-248.074-250.735 0-4.495 0.12-8.959 0.351-13.395l-0.026 0.62c0-186.936 195.947-337.085 454.955-554.803 5.063-4.665 11.848-7.523 19.306-7.523 0.338 0 0.678 0.006 1.014 0.019l-0.049-0.002c0.155-0.003 0.336-0.005 0.522-0.005 7.355 0 14.043 2.861 19.014 7.525l-0.016-0.015c256.005 217.718 454.955 367.867 454.955 554.803 0.207 3.816 0.327 8.284 0.327 12.775 0 137.543-110.741 249.222-247.931 250.733l-0.143 0.002z" />
<glyph unicode="&#xe938;" glyph-name="flag" d="M855.275-1.184l-327.275 232.725-327.275-232.725v800h654.544v-800z" />
<glyph unicode="&#xe939;" glyph-name="leaf" d="M1023.385 681.934c0 22.057-7.635 45.809-13.573 70.411-5.746 24.131-15.106 45.382-27.612 64.377l0.467-0.754c-7.364 17.648-24.232 29.947-44.040 30.538l-0.073 0.002q0 11.028-25.45 0c-14.422-9.331-21.208-11.876-20.36-9.331s-4.241 0-15.27-11.028l-33.933-32.236c-17.436-16.004-39.347-27.398-63.645-32.102l-0.828-0.134c-27.937-8.359-60.379-14.113-93.843-16.064l-1.168-0.055c-33.933 0-67.865 0-101.799 0s-67.865 0-101.799-5.090c-30.911-1.812-59.856-7.266-87.361-15.959l2.53 0.69c-44.438-14.701-82.871-32.796-118.625-54.823l2.405 1.379c-36.58-23.522-68.292-49.842-96.501-79.522l-0.207-0.22c-27.827-29.348-50.459-63.955-66.208-102.127l-0.81-2.216c-16.087-36.612-25.45-79.291-25.45-124.158 0-0.192 0-0.384 0.001-0.575v0.030c-0.001-0.244-0.001-0.535-0.001-0.824 0-20.693 1.852-40.952 5.4-60.622l-0.309 2.065s0-11.876 9.331-25.45 8.483-19.511 8.483-21.208-5.938-16.118-17.815-27.146c-11.812-11.197-24.54-21.771-37.933-31.484l-1.090-0.752c-14.353-10.806-26.883-22.798-37.876-36.106l-0.298-0.371c-10.208-11.266-16.789-25.987-17.805-42.216l-0.010-0.2c-0.197-1.148-0.309-2.469-0.309-3.818s0.112-2.67 0.328-3.957l-0.020 0.139s0-4.241 0-5.090v-5.938c3.695-5.103 8.553-9.144 14.198-11.783l0.224-0.094c4.689-9.048 9.759-16.828 15.5-24.052l-0.229 0.3c4.664-5.875 10.65-10.5 17.523-13.461l0.292-0.111c7.869-4.289 17.236-6.81 27.19-6.81 0.581 0 1.161 0.009 1.736 0.026l-0.085-0.002c13.896 1.189 25.949 8.198 33.848 18.547l0.084 0.115c11.235 11.625 21.078 24.71 29.187 38.913l0.504 0.958c8.483 14.422 16.967 27.146 25.45 39.023s16.118 18.664 22.905 18.664c20.497-4.096 38.697-11.462 54.985-21.61l-0.693 0.402c27.146-13.573 44.113-22.057 50.051-23.753 48.205-17.203 103.813-27.146 161.742-27.146 0.1 0 0.202 0 0.302 0h-0.016c91.253 0.841 176.99 23.649 252.429 63.379l-3.024-1.451c79.375 38.412 146.678 89.444 202.223 151.255l0.525 0.595c51.545 59.866 88.556 133.682 104.694 215.012l0.497 3.006c7.018 32.792 11.035 70.468 11.035 109.081 0 1.018-0.003 2.036-0.009 3.053l0.001-0.157c0.397 7.473 0.622 16.223 0.622 25.025s-0.226 17.552-0.673 26.243l0.050-1.217zM721.384 493.607c-6.294-6.296-14.991-10.19-24.597-10.19-0.3 0-0.599 0.004-0.896 0.011l0.044-0.001c-3.924 0.113-8.541 0.177-13.172 0.177-60.432 0-118.306-10.952-171.745-30.978l3.377 1.109c-57.301-25.958-106.391-59.57-148.617-100.256l0.161 0.155-38.174-37.326-42.416-40.719c-6.567-6.507-15.491-10.647-25.378-11.026l-0.070-0.002c-10.012 0.094-19.023 4.303-25.437 11.014l-0.013 0.013c-6.822 6.367-11.073 15.411-11.073 25.45s4.253 19.082 11.053 25.431l0.021 0.019c40.105 46.177 84.018 87.131 131.864 123.139l2.171 1.564c41.765 31.684 90.146 57.605 142.325 75.293l3.586 1.055c52.259 17.768 112.456 28.023 175.048 28.023 1.984 0 3.966-0.010 5.946-0.031l-0.302 0.002c0.254 0.006 0.553 0.010 0.852 0.010 9.607 0 18.302-3.894 24.597-10.19v0c6.803-6.5 11.031-15.645 11.031-25.777 0-0.183-0.002-0.366-0.004-0.549v0.028c0.006-0.254 0.010-0.553 0.010-0.852 0-9.607-3.894-18.302-10.19-24.597v0z" />
<glyph unicode="&#xe93a;" glyph-name="affinicia" d="M892.728 787.741l-18.616 21.409c-90.288 93.066-216.517 150.824-356.238 150.824-2.055 0-4.108-0.012-6.156-0.037l0.312 0.003c-2.278 0.038-4.965 0.060-7.658 0.060-138.865 0-264.226-57.811-353.331-150.68l-0.162-0.17c-93.038-89.266-150.849-214.627-150.849-353.492 0-2.693 0.022-5.38 0.065-8.062l-0.005 0.404c-0.038-2.278-0.060-4.965-0.060-7.658 0-138.865 57.811-264.226 150.68-353.331l0.17-0.162c89.266-93.038 214.627-150.849 353.492-150.849 2.693 0 5.38 0.022 8.062 0.065l-0.404-0.005c1.738-0.022 3.79-0.034 5.844-0.034 139.72 0 265.95 57.757 356.117 150.699l0.121 0.125 18.616 21.409v-172.198h131.243v1010.85h-131.243zM892.728 353.056c-45.004-171-198.236-295.064-380.445-295.064-0.089 0-0.178 0-0.267 0h0.014c-3.128-0.094-6.807-0.148-10.5-0.148-105.563 0-200.864 43.932-268.62 114.51l-0.121 0.127c-70.648 70.448-114.358 167.879-114.358 275.517s43.71 205.069 114.349 275.508l0.009 0.009c68.748 70.707 164.778 114.577 271.055 114.577 2.878 0 5.748-0.032 8.612-0.096l-0.426 0.008c2.173 0.045 4.734 0.071 7.302 0.071 106.724 0 203.114-44.24 271.833-115.381l0.105-0.109c50.71-49.186 87.424-112.532 103.766-183.657l0.484-2.504z" />
<glyph unicode="&#xe93b;" glyph-name="search" d="M1016.47-11.332l-45.323-45.323c-4.317-4.418-10.338-7.158-16.997-7.158s-12.678 2.74-16.992 7.153l-242.7 242.7c-4.204 4.362-6.829 10.271-6.945 16.791v25.973c-72.413-62.689-167.529-100.886-271.566-100.886-229.721 0-415.947 186.225-415.947 415.947s186.225 415.947 415.947 415.947c229.721 0 415.947-186.225 415.947-415.947 0-104.037-38.195-199.153-101.33-272.089l0.444 0.524h26.682c6.543-0.115 12.451-2.741 16.822-6.952l-0.008 0.007 242.697-242.697c4.205-4.283 6.8-10.158 6.8-16.639 0-6.84-2.891-13.005-7.518-17.341l-0.013-0.012zM735.395 543.872c0 0.109 0 0.237 0 0.366 0 176.631-143.187 319.818-319.818 319.818s-319.818-143.187-319.818-319.818c0-176.631 143.187-319.818 319.818-319.818 0.129 0 0.257 0 0.386 0h-0.020c176.344 0.208 319.244 143.108 319.452 319.432v0.020z" />
<glyph unicode="&#xe93c;" glyph-name="piggy-bank-outline" d="M955.517 559.449h-34.238c-23.534 38.394-52.212 70.997-85.574 98.052l-0.706 0.555v171.192c0 18.909-15.329 34.238-34.238 34.238v0c-0.039 0-0.086 0-0.133 0-77.165 0-144.157-43.563-177.722-107.436l-0.527-1.1c-10.614 2.055-20.885 3.424-31.499 4.793 5.635 14.004 8.904 30.239 8.904 47.239 0 0.245-0.001 0.488-0.002 0.732v-0.037c0.001 0.202 0.002 0.441 0.002 0.68 0 74.124-60.090 134.214-134.214 134.214s-134.214-60.090-134.214-134.214c0-28.848 9.101-55.57 24.589-77.451l-0.281 0.419c-65.771-25.683-121.532-64.285-166.463-113.023l-0.278-0.306c-44.609-47.257-75.84-107.59-87.364-174.659l-0.286-2.011h-4.109c-9.273 0.234-17.595 4.119-23.619 10.266l-0.006 0.006c-5.932 6.148-9.587 14.528-9.587 23.761 0 0.072 0 0.145 0.001 0.217v-0.012c0 0.061-0.001 0.133-0.001 0.205 0 9.233 3.655 17.614 9.597 23.772l-0.010-0.011c5.854 6.132 9.456 14.458 9.456 23.625s-3.602 17.493-9.468 23.638l0.012-0.013c-6.132 5.854-14.458 9.456-23.625 9.456s-17.493-3.602-23.638-9.468l0.013 0.012c-16.312-18.109-26.29-42.203-26.29-68.627 0-54.776 42.875-99.537 96.897-102.553l0.268-0.012h2.397c6.179-85.422 43.236-161.167 99.935-217.031l0.041-0.040v-133.53c0-37.818 30.658-68.477 68.477-68.477v0h133.873c37.818 0 68.477 30.658 68.477 68.477v0 23.967c20.549-3.051 44.267-4.793 68.392-4.793 0.031 0 0.060 0 0.091 0h-0.006c24.177 0.027 47.924 1.769 71.153 5.109l-2.676-0.316v-27.049c0-37.818 30.658-68.477 68.477-68.477v0h133.873c37.075 0.957 66.765 31.238 66.765 68.456 0 0.008 0 0.015 0 0.023v-0.001 133.53c36.9 36.884 65.689 81.879 83.463 132.083l0.764 2.474h-5.136c0.004 0 0.009 0 0.013 0 37.338 0 67.695 29.882 68.462 67.036l0.001 0.072v136.954c-1.694 36.469-31.673 65.396-68.408 65.396-0.024 0-0.049 0-0.073 0h0.004zM465.908 870.676c37.818 0 68.477-30.658 68.477-68.477s-30.658-68.477-68.477-68.477c-37.818 0-68.477 30.658-68.477 68.477v0c0 37.818 30.658 68.477 68.477 68.477v0zM955.517 357.1h-30.13c-15.525-0.25-28.52-10.797-32.469-25.096l-0.057-0.241c-14.806-54.561-43.881-101.053-82.979-136.755l-0.221-0.199c-6.308-6.187-10.23-14.786-10.272-24.301v-147.575h-132.502v67.449c0.004 0.186 0.006 0.405 0.006 0.625 0 18.909-15.329 34.238-34.238 34.238-2.303 0-4.553-0.227-6.729-0.661l0.218 0.036c-28.089-6.53-60.343-10.273-93.471-10.273s-65.382 3.743-96.361 10.829l2.89-0.557c-2.009 0.418-4.318 0.658-6.683 0.658-8.124 0-15.588-2.83-21.459-7.558l0.066 0.052c-7.484-6.264-12.235-15.578-12.325-26.005v-66.78h-133.873v146.198c-0.137 9.569-4.179 18.168-10.601 24.296l-0.013 0.012c-54.024 48.496-88.351 118.001-90.042 195.546l-0.005 0.297c0 130.449 104.769 247.543 256.103 287.261 13.623-5.21 29.379-8.228 45.841-8.228 27.332 0 52.721 8.319 73.774 22.561l-0.464-0.297c33.898-0.266 66.681-4.495 98.075-12.245l-2.892 0.604c2.15-0.48 4.618-0.755 7.15-0.755 14.76 0 27.337 9.339 32.148 22.43l0.077 0.238c14.755 42.691 49.2 75.104 92.186 86.748l0.942 0.218v-148.252c0.139-10.852 5.307-20.469 13.275-26.647l0.078-0.059c37.267-27.295 67.724-61.578 89.912-101.125l0.82-1.59c5.893-10.618 17.001-17.708 29.774-17.804h54.452zM544.656 582.046h-157.155c-18.909 0-34.238-15.329-34.238-34.238s15.329-34.238 34.238-34.238v0h157.155c18.909 0 34.238 15.329 34.238 34.238s-15.329 34.238-34.238 34.238v0zM745.636 537.194c-18.909 0-34.238-15.329-34.238-34.238s15.329-34.238 34.238-34.238c18.909 0 34.238 15.329 34.238 34.238v0c0 0.002 0 0.005 0 0.007 0 18.909-15.329 34.238-34.238 34.238-0.241 0-0.481-0.003-0.721-0.008l0.036 0.001z" />
<glyph unicode="&#xe93d;" glyph-name="electricity" d="M895.999 639.999v-31.817c0.001-0.109 0.002-0.239 0.002-0.368 0-17.572-14.245-31.817-31.817-31.817-0.129 0-0.258 0.001-0.387 0.002h-31.797v-128c-0.267-159.463-117.398-291.488-270.309-315.020l-1.782-0.226v-196.754h-95.817v196.754c-154.693 23.758-271.824 155.783-272.091 315.217v128.028h-31.817c-0.109-0.001-0.239-0.002-0.368-0.002-17.572 0-31.817 14.245-31.817 31.817 0 0.129 0.001 0.258 0.002 0.387v-0.020 31.817c0 0.001 0 0.001 0 0.002 0 17.572 14.245 31.817 31.817 31.817 0.129 0 0.257-0.001 0.385-0.002h703.613c0.109 0.001 0.237 0.002 0.366 0.002 17.572 0 31.817-14.245 31.817-31.817 0-0.001 0-0.001 0-0.002v0zM367.908 736.182h-95.817v175.909c0 26.459 21.449 47.909 47.909 47.909s47.909-21.449 47.909-47.909v0zM735.816 575.999h-447.634v-128c0-123.611 100.206-223.817 223.817-223.817s223.817 100.206 223.817 223.817v0zM751.908 736.182h-95.817v175.909c0 26.459 21.449 47.909 47.909 47.909s47.909-21.449 47.909-47.909v0z" />
<glyph unicode="&#xe93e;" glyph-name="gas" d="M896 363.886c0-251.977-157.989-427.886-384-427.886s-384 175.909-384 427.886c0 167.497 172.251 409.234 384 596.114 209.554-185.051 384-428.251 384-596.114zM223.817 363.886c-0.002-0.487-0.003-1.064-0.003-1.641 0-55.966 11.155-109.327 31.362-157.981l-1.005 2.73c6.949 149.943 166.4 314.149 257.829 417.646 91.429-103.497 250.88-268.069 257.829-417.646 19.207 45.321 30.37 98.026 30.37 153.338 0 1.249-0.006 2.497-0.017 3.744l0.001-0.19c0 148.846-185.417 363.52-288.183 465.554-102.766-102.4-288.183-317.074-288.183-465.554zM548.206 34.743c73.643 13.858 128.612 77.671 128.612 154.322 0 3.091-0.089 6.161-0.266 9.208l0.019-0.421c0 41.326-27.063 129.097-163.109 282.331-137.509-153.234-166.034-241.006-166.034-282.331-0.141-2.49-0.222-5.403-0.222-8.335 0-76.119 54.208-139.577 126.126-153.876l0.999-0.166c11.104-2.363 23.863-3.716 36.937-3.716s25.833 1.353 38.143 3.927l-1.206-0.211z" />
<glyph unicode="&#xe93f;" glyph-name="filters" d="M987.423 484.557h-590.336c-16.58 63.527-73.447 109.653-141.087 109.653s-124.507-46.126-140.862-108.639l-0.225-1.013h-78.336c-20.201 0-36.577-16.376-36.577-36.577s16.376-36.577 36.577-36.577h78.336c16.55-63.557 73.428-109.715 141.087-109.715s124.537 46.158 140.862 108.703l0.224 1.013h590.336c20.201 0 36.577 16.376 36.577 36.577s-16.376 36.577-36.577 36.577v0zM256 374.845c-40.391 0-73.134 32.743-73.134 73.134s32.743 73.134 73.134 73.134c40.391 0 73.134-32.743 73.134-73.134v0c0-40.391-32.743-73.134-73.134-73.134v0zM36.577 777.114h553.759c16.565-63.547 73.442-109.693 141.097-109.693s124.532 46.146 140.872 108.68l0.225 1.013h114.893c20.201 0 36.577 16.376 36.577 36.577s-16.376 36.577-36.577 36.577v0h-114.975c-16.565 63.547-73.442 109.693-141.097 109.693s-124.532-46.146-140.872-108.68l-0.225-1.013h-553.677c-20.201 0-36.577-16.376-36.577-36.577s16.376-36.577 36.577-36.577v0zM731.423 886.846c0.006 0 0.013 0 0.020 0 40.402 0 73.155-32.752 73.155-73.155s-32.752-73.155-73.155-73.155c-40.402 0-73.155 32.752-73.155 73.155v0c0 40.395 32.741 73.143 73.133 73.155h0.001zM987.423 118.845h-188.047c-16.58 63.527-73.447 109.653-141.087 109.653s-124.507-46.126-140.862-108.639l-0.225-1.013h-480.625c-20.201 0-36.577-16.376-36.577-36.577s16.376-36.577 36.577-36.577h480.625c16.58-63.527 73.447-109.653 141.087-109.653s124.507 46.126 140.862 108.639l0.225 1.013h188.047c20.201 0 36.577 16.376 36.577 36.577s-16.376 36.577-36.577 36.577v0zM658.289 9.113c-0.006 0-0.013 0-0.020 0-40.402 0-73.155 32.752-73.155 73.155s32.752 73.155 73.155 73.155c40.402 0 73.155-32.752 73.155-73.155v0c0-40.395-32.741-73.143-73.133-73.155h-0.001z" />
<glyph unicode="&#xe940;" glyph-name="telco" d="M276.456 55.552c0.29-35.267 28.946-63.744 64.254-63.744 35.488 0 64.256 28.768 64.256 64.256s-28.767 64.255-64.254 64.256v0c-35.519-0.145-64.257-28.972-64.257-64.511 0-0.090 0-0.18 0.001-0.27v0.014zM363.496 55.552c-0.284-12.557-10.461-22.644-23.027-22.784h-0.013c-0.061-0.001-0.134-0.001-0.207-0.001-6.149 0-11.702 2.55-15.659 6.651l-0.006 0.006c-4.111 4.082-6.656 9.738-6.656 15.988 0 0.049 0 0.099 0 0.148v-0.008c0 12.583 10.201 22.784 22.784 22.784s22.784-10.201 22.784-22.784v0zM643.048 872.96c-8.401 49.626-51.029 86.962-102.391 87.040h-399.881c-57.465-0.29-103.937-46.941-103.937-104.447 0-0.18 0-0.361 0.001-0.541v0.028-814.336c0-0.076 0-0.167 0-0.257 0-57.505 46.472-104.156 103.909-104.447h400.156c56.798 1.148 102.401 47.463 102.401 104.428 0 0.187 0 0.374-0.001 0.561v-0.029 106.496c192.098 10.594 343.856 168.947 343.856 362.745 0 193.888-151.9 352.299-343.187 362.719l-0.925 0.040zM602.856 40.96c0.001-0.154 0.002-0.335 0.002-0.517 0-34.37-27.646-62.283-61.913-62.715h-400.169c-34.419 0.289-62.21 28.258-62.21 62.718 0 0.181 0.001 0.361 0.002 0.542v-0.028 814.080c-0.001 0.153-0.002 0.333-0.002 0.514 0 34.46 27.791 62.429 62.183 62.718h400.155c28.106-0.376 51.683-19.334 59.029-45.129l0.107-0.439c-190.627-12.286-340.589-169.908-340.589-362.556 0-193.459 151.228-351.597 341.917-362.647l0.976-0.045v-106.496zM454.632 416.256v-2.56h-136.192v1.536c-9.096 28.443-14.339 61.161-14.339 95.104s5.243 66.661 14.962 97.389l-0.623-2.285v1.536h137.472v-2.56c-4.057-28.21-6.382-60.801-6.4-93.932v-0.020c-0.001-0.392-0.001-0.857-0.001-1.321 0-32.762 2.327-64.98 6.824-96.498l-0.423 3.612zM461.544 371.2v-1.792c10.859-60.493 32.974-114.328 64.223-161.595l-0.991 1.595 4.096-5.632-5.632 1.536c-82.095 28.177-147.824 85.919-185.772 160.212l-0.852 1.836-2.048 3.84zM461.544 651.52v-1.792h-128l2.816 3.072c38.82 76.070 104.677 133.687 184.604 160.864l2.276 0.672 6.4 2.048-3.84-5.632c-30.554-45.527-52.783-99.308-63.113-157.209l-0.375-2.535zM602.344 195.072c-35.328 16.64-76.8 76.8-97.024 173.568v2.56h97.792zM602.344 413.952h-104.704v1.792c-3.911 28.448-6.144 61.323-6.144 94.72s2.233 66.272 6.557 98.484l-0.413-3.764v1.536h105.216zM602.344 649.984h-97.28v2.816c21.248 97.792 61.696 156.928 97.024 173.568zM722.664 815.104c82.497-27.963 148.56-85.869 186.543-160.467l0.849-1.837 1.536-3.328h-128v1.792c-10.944 60.599-33.144 114.513-64.48 161.851l0.992-1.595-3.84 5.632 6.144-2.304zM644.072 825.6c35.072-17.664 74.496-76.8 95.744-172.8v-2.816h-95.232zM644.072 607.232h104.448v-2.048c4.075-27.95 6.402-60.22 6.402-93.033 0-0.593-0.001-1.186-0.002-1.779v0.092c0.001-0.444 0.002-0.97 0.002-1.496 0-32.88-2.327-65.216-6.825-96.853l0.423 3.63v-1.792h-103.936zM644.072 195.584v175.616h96.768v-2.56c-21.76-97.024-61.184-155.904-96.256-173.568zM909.544 368.128c-38.794-76.156-104.652-133.858-184.603-161.118l-2.277-0.674-6.4-2.048 4.096 5.376c30.209 45.764 52.318 99.676 62.836 157.626l0.396 2.63v1.28h128v-3.584zM928.488 413.952h-137.216v2.56c3.843 28.157 6.074 60.759 6.144 93.869v0.083c0 0.071 0 0.155 0 0.239 0 33.133-2.233 65.745-6.556 97.692l0.412-3.724v2.56h137.728v-1.792c9.094-28.404 14.335-61.078 14.335-94.976s-5.241-66.572-14.958-97.255l0.623 2.279v-1.536z" />
<glyph unicode="&#xe941;" glyph-name="internet" d="M355.649 226.423c29.212-167.43 94.758-277.15 156.030-277.15s128.957 109.72 159.593 277.15zM1002.569 590.494h-242.239c4.902-42.655 7.746-92.187 7.837-142.364v-0.13c-0.092-50.307-2.936-99.839-8.391-148.582l0.553 6.089h242.239c13.598 43.275 21.432 93.038 21.432 144.631s-7.834 101.356-22.377 148.164l0.946-3.533zM972.645 667.44c-64.326 133.775-181.347 233.557-323.425 273.438l-3.597 0.862c52.775-77.141 89.616-169.289 103.628-268.768l0.392-3.394zM331.426 448c0-0.39-0.001-0.85-0.001-1.311 0-49.761 3.106-98.796 9.137-146.922l-0.586 5.739h343.409c5.133 42.435 8.23 91.916 8.548 142.055l0.002 0.438c-0.319 50.581-3.417 100.061-9.148 148.736l0.598-6.242h-343.409c-5.443-42.387-8.55-91.422-8.55-141.183 0-0.461 0-0.921 0.001-1.382v0.071zM645.624-45.74c145.321 40.267 262.245 139.254 325.69 269.142l1.333 3.021h-223.002c-14.405-102.873-51.245-195.021-105.444-274.37l1.423 2.207zM50.001 226.423c65.005-132.734 181.832-231.629 323.412-271.299l3.611-0.864c-52.407 77.255-89.187 169.327-103.601 268.644l-0.419 3.517zM671.272 669.577c-30.636 167.43-101.882 277.15-159.593 277.15s-126.819-109.72-156.030-277.15zM254.479 448c0.092 50.307 2.936 99.839 8.391 148.582l-0.553-6.089h-241.526c-13.192-42.652-20.79-91.686-20.79-142.494s7.598-99.842 21.719-146.027l-0.929 3.533h241.526c-4.902 42.655-7.746 92.187-7.837 142.364v0.13zM377.023 941.74c-145.191-40.532-262.018-139.428-325.683-269.143l-1.339-3.020h223.002c14.832 102.835 51.613 194.907 105.487 274.459l-1.466-2.296z" />
<glyph unicode="&#xe942;" glyph-name="tv" d="M1014.709 867.107c-4.709 4.924-11.195 8.114-18.426 8.536l-0.075 0.003h-967.731c-0.245 0.008-0.531 0.013-0.819 0.013-7.582 0-14.393-3.293-19.084-8.528l-0.022-0.024c-5.258-4.712-8.552-11.524-8.552-19.105 0-0.287 0.005-0.575 0.014-0.86l-0.001 0.042v-683.105c-0.008-0.245-0.013-0.531-0.013-0.819 0-7.582 3.293-14.393 8.528-19.084l0.024-0.022c4.712-5.258 11.524-8.552 19.105-8.552 0.287 0 0.575 0.005 0.86 0.014l-0.042-0.001h369.304v-58.349h-85.388c-15.719 0-28.463-12.743-28.463-28.463s12.743-28.463 28.463-28.463h399.189c15.719 0 28.463 12.743 28.463 28.463s-12.743 28.463-28.463 28.463h-86.811v58.349h371.438c7.828 0.029 14.888 3.296 19.915 8.53l0.009 0.009c4.853 4.669 7.868 11.218 7.868 18.472 0 0.511-0.015 1.018-0.044 1.522l0.003-0.069v683.105c0.001 0.064 0.001 0.14 0.001 0.217 0 7.906-3.582 14.976-9.21 19.674l-0.041 0.033zM933.59 252.312c0.008-0.215 0.013-0.465 0.013-0.718 0-6.748-3.354-12.713-8.488-16.317l-0.063-0.043c-4.297-3.975-10.068-6.413-16.407-6.413-0.236 0-0.471 0.003-0.705 0.010l0.034-0.001h-794.82c-0.040 0-0.087 0-0.134 0-6.509 0-12.452 2.428-16.971 6.428l0.027-0.023c-3.944 3.534-6.414 8.643-6.414 14.329 0 0.216 0.003 0.431 0.011 0.646l-0.001-0.031v510.194c-0.007 0.183-0.010 0.398-0.010 0.614 0 5.687 2.47 10.795 6.396 14.312l0.018 0.016c4.492 3.977 10.434 6.404 16.944 6.404 0.047 0 0.094 0 0.141 0h796.236c0.2 0.006 0.434 0.009 0.671 0.009 6.339 0 12.11-2.438 16.423-6.428l-0.016 0.015c4.284-3.613 7.016-8.949 7.116-14.926v-0.017z" />
<glyph unicode="&#xe943;" glyph-name="mobile" d="M785.316 930.044c-18.043 18.481-43.205 29.942-71.043 29.942-0.682 0-1.36-0.007-2.039-0.021l0.101 0.002h-402.129c-0.757 0.021-1.649 0.033-2.542 0.033-27.652 0-52.623-11.476-70.411-29.926l-0.029-0.030c-18.48-17.817-29.956-42.788-29.956-70.44 0-0.894 0.012-1.785 0.036-2.673l-0.003 0.131v-818.124c-0.021-0.757-0.033-1.649-0.033-2.542 0-27.652 11.476-52.623 29.926-70.411l0.030-0.029c17.817-18.48 42.788-29.956 70.44-29.956 0.894 0 1.785 0.012 2.673 0.036l-0.131-0.003h403.589c0.576-0.012 1.256-0.019 1.938-0.019 27.838 0 53 11.46 71.024 29.922l0.019 0.020c18.48 17.817 29.956 42.788 29.956 70.44 0 0.894-0.012 1.785-0.036 2.673l0.003-0.131v820.315c-0.294 27.977-12.292 53.095-31.319 70.735l-0.063 0.058zM566.371-12.15c-12.396-13.062-29.883-21.19-49.268-21.19-0.64 0-1.277 0.009-1.913 0.026l0.093-0.002c-0.126-0.001-0.273-0.001-0.422-0.001-20.049 0-38.209 8.084-51.4 21.171l0.005-0.005c-13.012 13.115-21.078 31.15-21.165 51.070v0.017c0 40.307 32.675 72.982 72.982 72.982v0c40.307 0 72.982-32.675 72.982-72.982v0c-0.538-20.549-10.031-38.777-24.704-50.997l-0.11-0.089zM742.257 165.196c0.001-0.073 0.001-0.158 0.001-0.243 0-6.772-2.795-12.89-7.293-17.267l-0.006-0.005c-4.383-4.515-10.508-7.317-17.289-7.317-0.336 0-0.672 0.007-1.004 0.021l0.048-0.002h-406.509c-0.877-0.109-1.891-0.173-2.92-0.173-13.704 0-24.814 11.11-24.814 24.814 0 0.061 0 0.12 0.001 0.182v-0.009 642.238c-0.012 0.285-0.019 0.62-0.019 0.956 0 6.78 2.801 12.906 7.311 17.283l0.006 0.006c4.589 4.315 10.71 7.047 17.468 7.296l0.049 0.001h406.509c7.070-0.059 13.481-2.825 18.26-7.312l-0.014 0.013c4.515-4.383 7.317-10.508 7.317-17.289 0-0.336-0.007-0.672-0.021-1.004l0.002 0.048v-642.238z" />
<glyph unicode="&#xe944;" glyph-name="promo" d="M518.963 634.733v0c-7.026 1.542-15.096 2.426-23.372 2.426-23.045 0-44.489-6.849-62.408-18.624l0.43 0.266c-5.62-3.964-9.573-9.968-10.789-16.913l-0.023-0.157c-0.797-2.447-1.257-5.264-1.257-8.188 0-4.938 1.31-9.57 3.602-13.567l-0.070 0.133c3.964-5.62 9.968-9.573 16.913-10.789l0.157-0.023c1.679-0.411 3.608-0.647 5.592-0.647 5.38 0 10.354 1.736 14.393 4.679l-0.070-0.049c9.61 6.64 21.509 10.606 34.335 10.606 3.752 0 7.423-0.339 10.989-0.989l-0.372 0.056c16.134-2.944 29.643-12.348 37.987-25.378l0.136-0.228c7.21-9.433 11.551-21.394 11.551-34.368 0-20.555-10.9-38.566-27.236-48.565l-0.249-0.142c-6.964-4.895-11.458-12.895-11.458-21.945 0-5.616 1.731-10.828 4.689-15.131l-0.059 0.090c4.909-6.78 12.732-11.19 21.592-11.379h0.030c5.333 0.037 10.262 1.736 14.302 4.604l-0.078-0.052c29.27 20.87 48.127 54.702 48.127 92.938 0 54.504-38.317 100.058-89.482 111.196l-0.751 0.137zM679.422 760.483v0c1.219-0.201 2.625-0.316 4.056-0.316 13.766 0 25.050 10.627 26.095 24.125l0.006 0.090 14.225 145.665c0.106 0.904 0.167 1.953 0.167 3.015 0 6.407-2.206 12.298-5.9 16.957l0.043-0.057c-3.868 5.488-9.993 9.163-16.997 9.669l-0.074 0.004c-1.284 0.234-2.762 0.367-4.273 0.367-5.94 0-11.398-2.069-15.691-5.526l0.048 0.038c-5.824-4.375-9.698-11.075-10.237-18.696l-0.005-0.081-14.794-146.233c-0.073-0.744-0.115-1.607-0.115-2.481 0-13.607 10.162-24.841 23.311-26.525l0.133-0.014zM661.782 635.871v0c-69.987 102.989-158.751 175.253-232.722 189.478-6.851 1.703-14.717 2.68-22.81 2.68-19.86 0-38.347-5.881-53.813-15.997l0.376 0.231c-8.392-6.233-15.401-13.785-20.852-22.42l-0.2-0.34c-8.534-18.207-105.835-214.514-158.183-320.348l-89.902-60.314c-34.785-24.363-57.247-64.256-57.247-109.395 0-27.995 8.64-53.972 23.399-75.411l-0.292 0.449 3.983-5.69c24.444-35.133 64.622-57.84 110.103-57.84 25.079 0 48.546 6.904 68.603 18.916l-0.609-0.337 139.406-205.979c17.135-21.707 42.888-35.955 72.012-37.544l0.251-0.011c18.022 0.353 34.697 5.822 48.716 15.010l-0.351-0.216c19.312 12.86 32.91 32.991 36.915 56.398l0.071 0.502c0.937 4.824 1.471 10.371 1.471 16.045 0 18.433-5.654 35.544-15.323 49.694l0.196-0.303-119.491 176.391 287.916 23.329c10.786 2.382 20.309 6.519 28.759 12.143l-0.309-0.194c38.124 25.605 51.779 78.523 39.26 149.078-17.329 76.886-48.292 144.577-90.487 203.698l1.154-1.702zM206.581 227.326c-12.591-8.72-28.188-13.93-45.003-13.93-27.319 0-51.427 13.752-65.776 34.711l-0.176 0.272-3.983 5.69c-8.72 12.591-13.93 28.188-13.93 45.003 0 27.319 13.752 51.427 34.711 65.776l0.272 0.176 73.402 48.366 93.886-135.991zM468.891 42.401c3.63-5.352 5.796-11.955 5.796-19.062 0-18.913-15.332-34.246-34.246-34.246-11.805 0-22.216 5.974-28.373 15.063l-0.077 0.12-135.991 204.272 49.502 34.139h9.673zM330.054 296.176l-106.404 156.475 95.023 192.892c18.437-70.397 47.569-132.081 85.999-186.754l-1.218 1.829c38.653-57.659 85.276-106.455 138.968-146.256l1.576-1.115zM685.681 337.714c-7.438-9.031-18.305-15.006-30.58-15.923l-0.146-0.009c-47.228 3.413-132.009 56.9-207.685 170.701s-94.455 208.255-79.092 253.206c4.837 16.501 19.799 28.362 37.544 28.45h0.010c48.934 0 137.699-56.9 212.806-170.701 38.257-51.555 66.433-112.975 80.277-179.647l0.521-3.003c1.846-7.536 2.903-16.186 2.903-25.085 0-21.48-6.167-41.52-16.826-58.445l0.267 0.455zM974.734 565.314l-157.614 27.882c-1.299 0.225-2.796 0.351-4.322 0.351-14.77 0-26.743-11.973-26.743-26.743 0-5.42 1.612-10.465 4.383-14.678l-0.062 0.101c3.773-5.941 9.838-10.138 16.921-11.359l0.149-0.021 159.321-28.45h3.983c0.007 0 0.016 0 0.024 0 14.37 0 26.093 11.333 26.717 25.549l0.002 0.056c0.050 0.621 0.079 1.345 0.079 2.075 0 13.505-9.801 24.719-22.677 26.921l-0.162 0.023zM931.49 765.034c6.493 4.819 10.655 12.463 10.655 21.077 0 5.762-1.862 11.089-5.017 15.413l0.052-0.074c-5.004 7.076-13.153 11.638-22.367 11.638-5.423 0-10.478-1.581-14.727-4.307l0.109 0.065-133.715-88.765c-5.599-4.105-9.661-10.018-11.338-16.868l-0.042-0.203c-0.292-1.499-0.459-3.222-0.459-4.985 0-5.554 1.657-10.721 4.505-15.032l-0.063 0.102c4.74-7.069 12.614-11.719 21.588-11.949l0.034-0.001c0.013 0 0.028 0 0.044 0 5.509 0 10.621 1.703 14.838 4.609l-0.088-0.057z" />
<glyph unicode="&#xe945;" glyph-name="fiber" d="M1023.999 332.597c0-94.273-26.007-182.044-68.266-256.813-9.753-16.254-29.257-26.007-48.762-26.007h-789.943c-19.505 0-39.009 9.753-48.762 26.007-45.511 74.769-68.266 162.54-68.266 256.813 0 282.819 230.806 513.626 513.626 513.626 279.568 0 510.374-230.806 510.374-513.626zM939.479 332.597c0 234.057-191.797 425.854-425.854 425.854s-429.104-188.546-429.104-425.854c0-68.266 16.254-136.533 48.762-198.298h754.184c35.759 61.765 52.012 130.032 52.012 198.298zM286.070 332.597c0-32.508-26.007-58.515-58.515-58.515s-58.515 26.007-58.515 58.515 26.007 58.515 58.515 58.515c32.508 0 58.515-26.007 58.515-58.515zM370.59 534.147c0-32.508-26.007-58.515-58.515-58.515s-58.515 26.007-58.515 58.515 26.007 58.515 58.515 58.515c32.508-3.251 58.515-29.257 58.515-58.515zM666.412 605.664l-81.27-243.809c22.755-19.505 39.009-52.012 39.009-84.52 0-19.505-6.501-39.009-16.254-58.515h-195.048c-9.753 16.254-16.254 35.759-16.254 58.515 0 61.765 45.511 110.527 107.277 113.778l81.27 240.559c6.501 22.755 32.508 35.759 55.263 26.007 22.755-6.501 32.508-29.257 26.007-52.012zM455.111 618.668c0 32.508 26.007 58.515 58.515 58.515 9.753 0 19.505-3.251 29.257-9.753-3.251-6.501-6.501-9.753-9.753-16.254l-29.257-87.771c-29.257 6.501-48.762 26.007-48.762 55.263zM711.924 475.633c-9.753 0-16.254 3.251-26.007 6.501l35.759 104.025c0 0 0 0 0 0 26.007-3.251 48.762-26.007 48.762-55.263-3.251-29.257-29.257-55.263-58.515-55.263zM796.444 391.112c32.508 0 58.515-26.007 58.515-58.515s-26.007-58.515-58.515-58.515-58.515 26.007-58.515 58.515 26.007 58.515 58.515 58.515z" />
<glyph unicode="&#xe946;" glyph-name="internet-box" d="M923.227 444.342h-61.765l152.788 360.839c3.251 9.753 3.251 19.505 0 29.257s-9.753 16.254-19.505 19.505c-9.753 3.251-19.505 3.251-29.257 0s-16.254-9.753-19.505-19.505l-165.791-390.096h-539.633l-165.791 390.096c-9.753 19.505-32.508 26.007-48.762 19.505-19.505-9.753-29.257-29.257-19.505-48.762l152.788-360.839h-61.765c-52.013 0-97.524-42.261-97.524-97.524v-175.543c0-52.013 42.261-97.524 97.524-97.524h22.755v-22.755c0-19.505 16.254-39.009 39.009-39.009s35.759 19.505 35.759 42.261v22.755h630.656v-22.755c0-19.505 16.254-39.009 39.009-39.009s39.009 16.254 39.009 39.009v22.755h22.755c52.013 0 97.524 42.261 97.524 97.524v175.543c-3.251 52.013-48.762 94.273-100.775 94.273zM945.982 171.275c0-13.003-9.753-22.755-22.755-22.755h-825.703c-13.003 0-22.755 9.753-22.755 22.755v175.543c0 13.003 9.753 22.755 22.755 22.755h825.703c13.003 0 22.755-9.753 22.755-22.755v-175.543zM627.404 327.313c-19.505 0-39.009-16.254-39.009-39.009v-58.515c0-19.505 16.254-39.009 39.009-39.009s39.009 16.254 39.009 39.009v58.515c0 22.755-19.505 39.009-39.009 39.009zM744.432 327.313c-19.505 0-39.009-16.254-39.009-39.009v-58.515c0-19.505 16.254-39.009 39.009-39.009s39.009 16.254 39.009 39.009v58.515c0 22.755-16.254 39.009-39.009 39.009zM861.462 327.313c-19.505 0-39.009-16.254-39.009-39.009v-58.515c0-19.505 16.254-39.009 39.009-39.009s39.009 16.254 39.009 39.009v58.515c0 22.755-16.254 39.009-39.009 39.009zM305.574 730.412c0 0 0 0 0 0 9.753 0 16.254 3.251 22.755 9.753 97.524 97.524 260.064 97.524 360.839 0 13.003-13.003 35.759-13.003 48.762 0s13.003 35.759 0 48.762c-126.781 126.781-331.582 126.781-455.112 0-6.501-6.501-9.753-16.254-9.753-22.755 0-9.753 3.251-16.254 9.753-22.755 6.501-9.753 13.003-13.003 22.755-13.003zM429.105 593.879c6.501-6.501 16.254-9.753 22.755-9.753 9.753 0 16.254 3.251 22.755 9.753 19.505 19.505 48.762 19.505 68.267 0 13.003-13.003 35.759-13.003 48.762 0s13.003 35.759 0 48.762c-45.511 45.511-120.28 45.511-162.54 0v0c-13.003-13.003-13.003-35.759 0-48.762zM666.413 668.647c13.003 13.003 13.003 35.759 0 48.762-84.521 84.521-224.305 84.521-312.077 0-13.003-13.003-13.003-35.759 0-48.762 6.501-6.501 16.254-9.753 22.755-9.753s16.254 3.251 22.755 9.753c58.515 58.515 156.039 58.515 214.553 0 16.254-13.003 39.009-13.003 52.013 0z" />
<glyph unicode="&#xe947;" glyph-name="mobile-data" d="M832.001 31.086c0-51.2-43.886-95.086-95.086-95.086h-449.829c-51.2 0-95.086 43.886-95.086 95.086v833.828c0 51.2 43.886 95.086 95.086 95.086h446.171c51.2 0 95.086-43.886 95.086-95.086v-833.828zM736.915 850.286c0 7.314-3.657 10.971-10.971 10.971h-424.229c-7.314 3.657-14.629-3.657-14.629-10.971v-804.57c0-7.314 3.657-10.971 10.971-10.971h424.229c7.314 0 10.971 3.657 10.971 10.971v804.57zM513.83 64c-36.571 0-65.829 29.257-65.829 65.829s29.257 62.171 65.829 62.171 65.829-29.257 65.829-65.829-32.914-62.171-65.829-62.171z" />
<glyph unicode="&#xe948;" glyph-name="chat" d="M1023.999 329.579c0 103.19-80.739 190.675-192.573 221.348 0.632-8.327 1.054-16.654 1.054-25.086 0-51.437-12.016-101.187-35.521-147.987-22.451-44.586-54.494-84.534-95.285-118.685-40.159-33.729-86.747-60.080-138.606-78.421-8.749-3.056-17.497-5.797-26.351-8.432 51.226-46.588 124.903-75.891 206.908-75.891 26.562 0 53.123 3.162 78.947 9.381l165.273-67.142-41.318 130.068c48.064 39.738 76.418 98.552 77.472 160.847zM790.318 525.841c0 183.087-176.973 331.495-395.159 331.495s-395.159-148.408-395.159-331.389c0-88.644 41.529-169.279 109.198-228.726l-58.183-184.878 232.942 95.496c35.31-8.643 72.624-13.281 111.201-13.281 218.291 0 395.159 148.408 395.159 331.389zM524.806 402.835h-263.51c-11.594 0-21.081 9.487-21.081 21.081s9.487 21.081 21.081 21.081h263.404c11.594 0 21.081-9.487 21.081-21.081s-9.487-21.081-21.081-21.081zM529.022 507.606h-267.726c-11.594 0-21.081 9.487-21.081 21.081s9.487 21.081 21.081 21.081h267.726c11.594 0 21.081-9.487 21.081-21.081s-9.487-21.081-21.081-21.081zM529.022 612.377h-267.726c-11.594 0-21.081 9.487-21.081 21.081s9.487 21.081 21.081 21.081h267.726c11.594 0 21.081-9.487 21.081-21.081s-9.487-21.081-21.081-21.081z" />
<glyph unicode="&#xe949;" glyph-name="menu-energie" d="M256 960v-562.997h153.668v-461.003l358.332 614.671h-204.664l204.664 409.329h-512z" />
<glyph unicode="&#xe94a;" glyph-name="menu-internet-mobile" d="M563.283 576.428v0zM563.283 576.428v0l91.83-91.83 91.83 91.83c-50.686 50.686-132.975 50.686-183.065 0zM318.799 820.912l61.419-61.419c152.058 152.058 398.927 152.058 550.984 0l61.419 61.419c-186.046 185.45-487.179 185.45-673.226 0zM441.041 698.671l61.419-61.419c84.675 84.675 221.229 84.675 305.903 0l61.419 61.419c-118.068 118.068-310.078 118.068-428.145 0zM363.521 600.281h-241.503c-50.090 0-90.638-40.549-90.638-90.041v0-483.602c0-50.090 40.549-90.638 90.638-90.638h241.503c50.090 0 90.638 40.549 90.638 90.638v0 483.005c0 50.090-40.549 90.638-90.638 90.638zM302.699-3.775h-120.453v30.411h121.050v-30.411zM401.089 86.864h-316.637v422.779h316.637v-422.779z" />
<glyph unicode="&#xe94b;" glyph-name="menu-assurance" d="M939.555 676.026c0-394.238-242.109-613.882-394.784-677.478-21.005-8.725-44.717-8.725-65.727 0-190.613 79.434-394.601 323.857-394.601 677.478 0 34.569 20.854 65.727 52.748 78.917l342.037 142.521c8.725 3.62 23.441 6.534 32.861 6.534s24.169-2.92 32.861-6.534l342.037-142.521c31.71-13.196 52.565-44.356 52.565-78.917z" />
<glyph unicode="&#xe94c;" glyph-name="menu-demenagement" d="M465.755 450.974l-389.12 205.461-76.635-114.291 369.961-212.067 96.454 120.898zM653.377 330.076l370.622 212.067-77.295 122.219-389.12-213.389 96.454-120.898zM512.661 881.714l-379.871-186.963 379.21-200.176 379.871 208.104-379.21 179.035zM362.694 265.332l-266.24 151.948v-199.515l385.156-203.479v360.712l-81.259-101.739c-9.249-11.231-25.765-14.534-38.317-7.267zM623.649 272.599l-81.259 101.739v-359.391l385.817 211.406v190.265l-265.579-151.948c-12.552-7.267-29.068-3.964-38.317 7.267z" />
<glyph unicode="&#xe94d;" glyph-name="menu-banque" d="M64 256c0-70.4 57.6-128 128-128h640c70.4 0 128 57.6 128 128v272h-896v-272zM416 320h32c16 0 32-16 32-32s-16-32-32-32h-32c-16 0-32 16-32 32s16 32 32 32zM224 320h96c16 0 32-16 32-32s-16-32-32-32h-96c-16 0-32 16-32 32s16 32 32 32zM832 768h-640c-70.4 0-128-57.6-128-128v-48h896v48c0 70.4-57.6 128-128 128z" />
</font>
</defs>
</svg>
